VERSION	0.00.00	1.03.00
FES_MODE	0
BPM_DEF	168.000	168.000	168.000	168.000
MET_DEF	4	4
RESOLUTION	384
CLK_DEF	384
COMPATIBLE_CODE	MA2

BPM	0	0	168.000
MET	0	0	4	4

TAP	2	0	0
TAP	2	192	0
HLD	3	0	1	192
TAP	4	0	2
TAP	4	192	2
HLD	5	0	3	192
TAP	6	0	4
TAP	6	192	4
HLD	7	0	5	192
TAP	8	0	6
TAP	8	192	6
HLD	9	0	7	192
HLD	10	0	0	192
TAP	11	0	7
TAP	11	192	7
TAP	12	0	6
TAP	12	192	6
TAP	13	0	5
TAP	13	96	5
TAP	13	192	5
TAP	14	0	4
TAP	14	0	5
TAP	14	192	4
TAP	14	192	5
TAP	15	0	3
TAP	15	192	3
TAP	16	0	2
TAP	16	192	2
TAP	17	0	1
TAP	17	96	1
TAP	17	192	1
HLD	18	0	0	192
HLD	18	0	1	192
TAP	19	0	0
TAP	19	192	0
TAP	20	0	1
TAP	20	192	1
TAP	21	0	2
TAP	21	96	2
TAP	21	192	2
TAP	22	0	2
TAP	22	0	3
TAP	22	192	2
TAP	22	192	3
TAP	23	0	4
TAP	23	192	4
TAP	24	0	5
TAP	24	192	5
TAP	25	0	6
TAP	25	96	6
STR	25	192	6
SI_	25	192	6	96	288	1
TAP	27	0	0
TAP	27	192	7
TAP	28	0	6
TAP	28	192	5
TAP	29	0	4
TAP	29	96	4
STR	29	192	4
SI_	29	192	4	96	288	0
HLD	31	0	1	144
HLD	32	0	0	144
HLD	33	0	7	144
HLD	34	0	6	144
HLD	35	0	0	576
HLD	35	0	7	576
TAP	37	0	6
TAP	37	96	6
TAP	37	192	7
TAP	37	288	7
BRK	38	0	0
TAP	39	0	1
TAP	39	96	1
TAP	40	0	1
TAP	40	96	1
TAP	41	0	1
TAP	41	192	0
TAP	42	0	7
TAP	42	192	6
TAP	43	0	6
TAP	43	96	6
TAP	44	0	6
TAP	44	96	6
TAP	45	0	6
TAP	45	192	7
TAP	46	0	0
TAP	46	96	0
TAP	46	192	0
STR	47	0	1
SI_	47	0	1	96	288	5
TAP	49	0	6
TAP	49	192	7
TAP	50	0	0
TAP	50	96	0
TAP	50	192	0
STR	51	0	7
SI_	51	0	7	96	288	4
HLD	53	0	0	192
TAP	54	0	0
TAP	54	0	7
TAP	54	192	0
TAP	54	192	7
TAP	55	0	1
TAP	55	96	1
BRK	55	192	0
TAP	56	0	1
TAP	56	96	1
BRK	56	192	0
TAP	57	0	2
TAP	57	192	3
TAP	58	0	4
TAP	58	192	5
TAP	59	0	6
TAP	59	96	6
BRK	59	192	7
TAP	60	0	6
TAP	60	96	6
BRK	60	192	7
TAP	61	0	5
TAP	61	192	4
TAP	62	0	3
TAP	62	96	3
TAP	62	192	2
TAP	63	0	1
HLD	63	96	1	144
TAP	64	0	1
HLD	64	96	1	144
TAP	65	0	2
TAP	65	192	3
TAP	66	0	4
TAP	66	96	4
TAP	66	192	5
TAP	67	0	6
HLD	67	96	6	144
TAP	68	0	6
HLD	68	96	6	144
TAP	69	0	7
TAP	69	192	0
TAP	70	0	0
TAP	70	0	7
TAP	70	192	0
TAP	70	192	7
HLD	71	0	0	576
HLD	71	0	7	576
HLD	73	0	1	576
HLD	73	0	6	576
TAP	75	0	0
TAP	75	192	1
TAP	76	0	2
TAP	76	192	3
TAP	77	0	4
TAP	77	192	5
TAP	78	0	6
TAP	78	96	6
TAP	78	192	6
TAP	79	0	7
TAP	79	96	7
TAP	79	192	7
STR	80	0	0
SI_	80	0	0	96	288	4

T_REC_TAP	123
T_REC_BRK	5
T_REC_XTP	0
T_REC_HLD	22
T_REC_XHO	0
T_REC_STR	5
T_REC_BST	0
T_REC_XST	0
T_REC_TTP	0
T_REC_THO	0
T_REC_SLD	5
T_REC_ALL	160
T_NUM_TAP	128
T_NUM_BRK	5
T_NUM_HLD	22
T_NUM_SLD	5
T_NUM_ALL	160
T_JUDGE_TAP	133
T_JUDGE_HLD	128
T_JUDGE_SLD	5
T_JUDGE_ALL	266
TTM_EACHPAIRS	12
TTM_SCR_TAP	64000
TTM_SCR_BRK	13000
TTM_SCR_HLD	22000
TTM_SCR_SLD	7500
TTM_SCR_ALL	106500
TTM_SCR_S	102850
TTM_SCR_SS	106000
TTM_RAT_ACV	10047

