VERSION	0.00.00	1.03.00
FES_MODE	0
BPM_DEF	180.000	180.000	180.000	180.000
MET_DEF	4	4
RESOLUTION	384
CLK_DEF	384
COMPATIBLE_CODE	MA2

BPM	0	0	180.000
MET	0	0	4	4

TAP	1	0	1
TAP	1	0	5
TAP	1	48	6
TAP	1	96	3
TAP	1	120	4
TAP	1	168	2
TAP	1	216	6
TAP	1	264	1
TAP	1	288	7
TAP	1	312	0
TAP	1	336	6
TAP	1	360	1
TAP	2	24	5
TAP	2	48	4
TAP	2	96	2
TAP	2	120	3
TAP	2	168	5
TAP	2	216	2
TAP	2	264	6
TAP	2	288	3
TAP	2	336	4
TAP	3	0	2
TAP	3	0	6
TAP	3	48	1
TAP	3	96	4
TAP	3	120	3
TAP	3	168	5
TAP	3	216	1
TAP	3	264	6
TAP	3	288	0
TAP	3	312	7
TAP	3	336	1
TAP	3	360	6
TAP	4	24	2
TAP	4	48	3
TAP	4	96	5
TAP	4	120	4
TAP	4	168	2
TAP	4	216	5
TAP	4	264	1
TAP	4	288	4
TAP	4	336	3
TAP	5	0	1
TAP	5	0	5
TAP	5	48	6
TAP	5	96	3
TAP	5	120	4
TAP	5	168	2
TAP	5	216	6
TAP	5	264	1
TAP	5	288	7
TAP	5	312	0
TAP	5	336	6
TAP	5	360	1
TAP	6	24	5
TAP	6	48	4
TAP	6	96	2
TAP	6	120	3
TAP	6	168	5
TAP	6	216	2
TAP	6	264	6
TAP	6	288	3
TAP	6	336	4
TAP	7	0	2
TAP	7	0	6
TAP	7	48	1
TAP	7	96	4
TAP	7	120	3
TAP	7	168	5
TAP	7	216	1
TAP	7	264	6
TAP	7	288	0
TAP	7	312	7
TAP	7	336	1
TAP	7	360	6
TAP	8	24	2
TAP	8	48	3
TAP	8	96	5
TAP	8	120	4
TAP	8	168	1
TAP	8	168	6
TAP	8	216	7
TAP	8	240	0
TAP	8	264	6
TAP	8	288	1
TAP	8	312	5
TAP	8	336	2
TAP	8	360	4
TAP	9	0	3
TAP	9	0	5
TAP	9	48	2
TAP	9	96	7
TAP	9	120	0
TAP	9	168	6
TAP	9	216	2
TAP	9	264	5
TAP	9	288	3
TAP	9	312	4
TAP	9	336	2
TAP	9	360	5
TAP	10	24	1
TAP	10	48	0
TAP	10	96	6
TAP	10	120	7
TAP	10	168	1
TAP	10	216	6
TAP	10	264	2
TAP	10	288	7
TAP	10	336	0
TAP	11	0	2
TAP	11	0	6
TAP	11	48	5
TAP	11	96	0
TAP	11	120	7
TAP	11	168	1
TAP	11	216	5
TAP	11	264	2
TAP	11	288	4
TAP	11	312	3
TAP	11	336	5
TAP	11	360	2
TAP	12	24	6
TAP	12	48	7
TAP	12	96	1
TAP	12	120	0
TAP	12	168	6
TAP	12	216	1
TAP	12	264	5
TAP	12	288	0
TAP	12	336	7
TAP	13	0	1
TAP	13	0	5
TAP	13	48	2
TAP	13	96	7
TAP	13	120	0
TAP	13	168	6
TAP	13	216	2
TAP	13	264	5
TAP	13	288	3
TAP	13	312	4
TAP	13	336	2
TAP	13	360	5
TAP	14	24	1
TAP	14	48	0
TAP	14	96	6
TAP	14	120	7
TAP	14	168	1
TAP	14	216	6
TAP	14	264	2
TAP	14	288	7
TAP	14	336	0
TAP	15	0	2
TAP	15	0	6
TAP	15	48	5
TAP	15	96	0
TAP	15	120	7
TAP	15	168	1
TAP	15	216	5
TAP	15	264	2
TAP	15	288	4
TAP	15	312	3
TAP	15	336	5
TAP	15	360	2
TAP	16	24	6
TAP	16	48	7
TAP	16	96	1
TAP	16	120	0
TAP	16	168	2
TAP	16	168	5
TAP	16	216	3
TAP	16	216	4
TAP	16	264	4
TAP	16	288	3
TAP	16	312	5
TAP	16	336	2
TAP	16	360	6
BRK	17	0	1
BRK	17	0	7
TAP	17	48	5
TAP	17	96	2
TAP	17	120	3
TAP	17	144	2
TAP	17	192	1
TAP	17	192	5
TAP	17	240	2
TAP	17	288	5
TAP	17	312	4
TAP	17	336	5
TAP	17	360	4
TAP	18	0	3
TAP	18	0	5
TAP	18	48	6
TAP	18	96	0
TAP	18	120	7
TAP	18	144	0
TAP	18	168	7
TAP	18	192	0
TAP	18	192	6
TAP	18	240	0
TAP	18	240	6
TAP	18	288	1
TAP	18	288	7
TAP	18	336	1
TAP	18	336	7
TAP	19	0	0
TAP	19	0	6
TAP	19	48	2
TAP	19	96	5
TAP	19	120	4
TAP	19	144	5
TAP	19	192	2
TAP	19	192	6
TAP	19	240	5
TAP	19	288	2
TAP	19	312	3
TAP	19	336	2
TAP	19	360	3
TAP	20	0	2
TAP	20	0	4
TAP	20	48	1
TAP	20	96	7
TAP	20	120	0
TAP	20	144	7
TAP	20	168	0
TAP	20	192	1
TAP	20	192	7
TAP	20	240	1
TAP	20	240	7
TAP	20	288	0
TAP	20	288	6
TAP	20	336	0
TAP	20	336	6
TAP	21	0	2
TAP	21	0	4
TAP	21	48	6
TAP	21	96	1
TAP	21	120	0
TAP	21	144	1
TAP	21	192	2
TAP	21	192	6
TAP	21	240	1
TAP	21	288	6
TAP	21	312	7
TAP	21	336	6
TAP	21	360	7
TAP	22	0	0
TAP	22	0	6
TAP	22	48	5
TAP	22	96	3
TAP	22	120	4
TAP	22	144	3
TAP	22	168	4
TAP	22	192	3
TAP	22	192	5
TAP	22	240	7
TAP	22	256	6
TAP	22	272	5
TAP	22	288	4
TAP	22	336	2
TAP	22	336	5
TAP	23	0	3
TAP	23	0	6
TAP	23	48	5
TAP	23	72	4
TAP	23	96	5
TAP	23	144	2
TAP	23	192	1
TAP	23	192	4
TAP	23	240	2
TAP	23	264	3
TAP	23	288	2
TAP	23	336	5
TAP	24	0	2
TAP	24	0	6
TAP	24	48	3
TAP	24	72	4
TAP	24	96	2
TAP	24	96	5
TAP	24	144	1
TAP	24	144	6
STR	24	192	0
SI_	24	192	0	96	36	4
STR	24	192	7
SI_	24	192	7	96	36	3
TAP	24	208	1
TAP	24	208	6
TAP	24	224	2
TAP	24	224	5
TAP	24	240	3
TAP	24	240	4
BRK	24	288	0
BRK	24	288	7
TAP	25	0	2
TAP	25	0	6
TAP	25	48	1
TAP	25	96	6
TAP	25	120	7
TAP	25	144	6
TAP	25	192	0
TAP	25	192	5
TAP	25	240	6
TAP	25	288	2
TAP	25	312	3
TAP	25	336	2
TAP	25	360	3
TAP	26	0	1
TAP	26	0	4
TAP	26	48	5
TAP	26	96	1
TAP	26	120	0
TAP	26	144	1
TAP	26	168	0
TAP	26	192	2
TAP	26	192	7
TAP	26	240	2
TAP	26	240	7
TAP	26	288	1
TAP	26	288	6
TAP	26	336	1
TAP	26	336	6
TAP	27	0	2
TAP	27	0	4
TAP	27	48	5
TAP	27	96	1
TAP	27	120	0
TAP	27	144	1
TAP	27	192	2
TAP	27	192	7
TAP	27	240	1
TAP	27	288	5
TAP	27	312	4
TAP	27	336	5
TAP	27	360	4
TAP	28	0	3
TAP	28	0	6
TAP	28	48	2
TAP	28	96	6
TAP	28	120	7
TAP	28	144	6
TAP	28	168	7
TAP	28	192	0
TAP	28	192	5
TAP	28	240	0
TAP	28	240	5
TAP	28	288	1
TAP	28	288	6
TAP	28	336	1
TAP	28	336	6
TAP	29	0	3
TAP	29	0	5
TAP	29	48	2
TAP	29	96	5
TAP	29	120	4
TAP	29	144	5
TAP	29	192	3
TAP	29	192	6
TAP	29	240	5
TAP	29	288	1
TAP	29	312	0
TAP	29	336	1
TAP	29	360	0
TAP	30	0	2
TAP	30	0	7
TAP	30	48	6
TAP	30	96	2
TAP	30	120	3
TAP	30	144	2
TAP	30	168	3
TAP	30	192	1
TAP	30	192	4
TAP	30	240	0
TAP	30	256	1
TAP	30	272	2
TAP	30	288	3
TAP	30	336	0
TAP	30	336	7
TAP	31	0	1
TAP	31	0	4
TAP	31	48	2
TAP	31	72	3
TAP	31	96	2
TAP	31	144	5
TAP	31	192	3
TAP	31	192	6
TAP	31	240	0
TAP	31	240	7
TAP	31	256	1
TAP	31	256	6
TAP	31	272	2
TAP	31	272	5
TAP	31	288	3
TAP	31	288	4
TAP	31	336	1
TAP	31	336	5
STR	32	0	3
SCL	32	0	3	96	36	0
STR	32	0	7
SCL	32	0	7	96	36	4
STR	32	96	3
SUR	32	96	3	96	36	7
STR	32	96	7
SUR	32	96	7	96	36	3
STR	32	192	3
SCL	32	192	3	96	36	0
STR	32	192	7
SCL	32	192	7	96	36	4
BRK	32	288	3
BRK	32	288	7
TAP	33	0	3
TAP	33	48	5
TAP	33	96	1
TAP	33	120	0
TAP	33	144	1
TAP	33	192	7
TAP	33	240	2
TAP	33	288	4
TAP	33	312	3
TAP	33	336	4
TAP	33	360	3
TAP	34	0	5
TAP	34	48	1
TAP	34	96	6
TAP	34	120	7
TAP	34	144	6
TAP	34	168	7
TAP	34	192	0
TAP	34	192	5
TAP	34	240	1
TAP	34	240	4
TAP	34	288	2
TAP	34	288	3
TAP	34	336	0
TAP	34	336	5
TAP	35	0	4
TAP	35	48	2
TAP	35	96	6
TAP	35	120	7
TAP	35	144	6
TAP	35	192	0
TAP	35	240	5
TAP	35	288	3
TAP	35	312	4
TAP	35	336	3
TAP	35	360	4
TAP	36	0	2
TAP	36	48	6
TAP	36	96	1
TAP	36	120	0
TAP	36	144	1
TAP	36	168	0
TAP	36	192	2
TAP	36	192	7
TAP	36	240	0
TAP	36	240	7
TAP	36	256	1
TAP	36	256	6
TAP	36	272	2
TAP	36	272	5
TAP	36	288	3
TAP	36	288	4
TAP	36	336	1
TAP	36	336	6
TAP	37	0	0
TAP	37	0	7
TAP	37	48	1
TAP	37	72	0
TAP	37	96	1
TAP	37	144	2
TAP	37	192	3
TAP	37	216	4
TAP	37	240	3
TAP	37	288	5
TAP	37	336	6
TAP	38	0	3
TAP	38	0	7
TAP	38	48	2
TAP	38	48	6
TAP	38	96	1
TAP	38	96	5
TAP	38	144	0
TAP	38	144	4
TAP	38	192	3
TAP	38	192	7
TAP	38	240	2
TAP	38	240	6
TAP	38	288	1
TAP	38	288	5
TAP	38	336	0
TAP	38	336	4
TAP	39	0	1
TAP	39	0	7
TAP	39	48	0
TAP	39	96	5
TAP	39	120	4
TAP	39	144	5
TAP	39	192	0
TAP	39	192	6
TAP	39	240	7
TAP	39	288	2
TAP	39	312	3
TAP	39	336	2
TAP	39	360	3
TAP	40	0	1
TAP	40	0	4
TAP	40	48	2
TAP	40	96	7
TAP	40	120	0
TAP	40	144	6
TAP	40	168	1
TAP	40	192	0
TAP	40	192	7
TAP	40	240	0
TAP	40	240	7
TAP	40	256	1
TAP	40	256	6
TAP	40	272	2
TAP	40	272	5
TAP	40	288	3
TAP	40	288	4
TAP	40	336	2
TAP	40	336	6
TAP	41	0	0
TAP	41	48	6
TAP	41	96	2
TAP	41	120	3
TAP	41	144	2
TAP	41	192	4
TAP	41	240	1
TAP	41	288	7
TAP	41	312	0
TAP	41	336	7
TAP	41	360	0
TAP	42	0	6
TAP	42	48	2
TAP	42	96	5
TAP	42	120	4
TAP	42	144	5
TAP	42	168	4
TAP	42	192	3
TAP	42	192	6
TAP	42	240	2
TAP	42	240	7
TAP	42	288	0
TAP	42	288	1
TAP	42	336	3
TAP	42	336	6
TAP	43	0	7
TAP	43	48	1
TAP	43	96	5
TAP	43	120	4
TAP	43	144	5
TAP	43	192	3
TAP	43	240	6
TAP	43	288	0
TAP	43	312	7
TAP	43	336	0
TAP	43	360	7
TAP	44	0	1
TAP	44	48	5
TAP	44	96	2
TAP	44	120	3
TAP	44	144	2
TAP	44	168	3
TAP	44	192	1
TAP	44	192	4
TAP	44	240	0
TAP	44	240	7
TAP	44	256	1
TAP	44	256	6
TAP	44	272	2
TAP	44	272	5
TAP	44	288	3
TAP	44	288	4
TAP	44	336	1
TAP	44	336	6
TAP	45	0	0
TAP	45	0	7
TAP	45	48	6
TAP	45	72	7
TAP	45	96	6
TAP	45	144	5
TAP	45	192	4
TAP	45	216	3
TAP	45	240	4
TAP	45	288	2
TAP	45	336	1
TAP	46	0	0
TAP	46	0	4
TAP	46	48	1
TAP	46	48	5
TAP	46	96	2
TAP	46	96	6
TAP	46	144	3
TAP	46	144	7
TAP	46	192	0
TAP	46	192	4
TAP	46	240	1
TAP	46	240	5
TAP	46	288	2
TAP	46	288	6
TAP	46	336	3
TAP	46	336	7
TAP	47	0	0
TAP	47	0	6
TAP	47	48	7
TAP	47	96	2
TAP	47	120	3
TAP	47	144	2
TAP	47	192	1
TAP	47	192	7
TAP	47	240	0
TAP	47	288	5
TAP	47	312	4
TAP	47	336	5
TAP	47	360	4
TAP	48	0	3
TAP	48	0	6
TAP	48	48	5
TAP	48	96	0
TAP	48	120	7
TAP	48	144	1
TAP	48	168	6
STR	48	192	3
SI_	48	192	3	96	24	0
STR	48	192	4
SI_	48	192	4	96	24	7
TAP	48	240	2
TAP	48	240	5
BRK	48	288	3
BRK	48	288	4
HLD	49	0	5	96
TAP	49	48	4
HLD	49	96	3	96
TAP	49	144	4
HLD	49	192	6	96
TAP	49	240	4
HLD	49	288	2	48
HLD	49	336	0	144
STR	50	96	7
SCR	50	96	7	96	36	2
STR	50	192	7
SCL	50	192	7	96	36	4
TAP	50	288	7
TAP	50	336	0
HLD	51	0	2	96
TAP	51	48	3
HLD	51	96	4	96
TAP	51	144	3
HLD	51	192	1	96
TAP	51	240	3
HLD	51	288	5	48
HLD	51	336	7	144
STR	52	96	0
SCL	52	96	0	96	36	5
STR	52	192	0
SCR	52	192	0	96	36	3
TAP	52	288	0
TAP	52	336	7
HLD	53	0	5	96
TAP	53	48	3
HLD	53	96	2	96
TAP	53	144	4
HLD	53	192	6	96
TAP	53	240	3
HLD	53	288	1	48
HLD	53	336	0	144
STR	54	96	7
SCR	54	96	7	96	36	2
STR	54	192	7
SCL	54	192	7	96	36	4
TAP	54	288	7
TAP	54	336	0
TAP	55	0	2
TAP	55	0	6
TAP	55	48	3
TAP	55	96	5
TAP	55	144	0
TAP	55	192	1
TAP	55	192	5
TAP	55	240	4
TAP	55	288	2
TAP	55	336	7
TAP	56	0	1
TAP	56	24	0
TAP	56	48	2
TAP	56	72	7
TAP	56	96	3
TAP	56	120	6
TAP	56	144	4
TAP	56	168	5
TAP	56	192	2
TAP	56	216	3
TAP	56	240	1
TAP	56	264	4
BRK	56	288	0
BRK	56	288	5
HLD	57	0	1	96
TAP	57	48	0
HLD	57	96	7	96
TAP	57	144	0
HLD	57	192	2	96
TAP	57	240	0
HLD	57	288	6	48
HLD	57	336	4	144
STR	58	96	3
SCR	58	96	3	96	36	6
STR	58	192	3
SCL	58	192	3	96	36	0
TAP	58	288	3
TAP	58	336	4
HLD	59	0	6	96
TAP	59	48	7
HLD	59	96	0	96
TAP	59	144	7
HLD	59	192	5	96
TAP	59	240	7
HLD	59	288	1	48
HLD	59	336	3	144
STR	60	96	4
SCL	60	96	4	96	36	1
STR	60	192	4
SCR	60	192	4	96	36	7
TAP	60	288	4
TAP	60	336	3
BRK	61	0	0
BRK	61	0	2
TAP	61	48	1
TAP	61	96	6
TAP	61	144	3
TAP	61	192	0
TAP	61	240	5
TAP	61	288	2
TAP	61	336	7
BRK	62	0	0
BRK	62	0	5
TAP	62	48	6
TAP	62	96	1
TAP	62	144	4
TAP	62	192	7
TAP	62	240	2
TAP	62	288	5
TAP	62	336	0
BRK	63	0	6
TAP	63	24	7
TAP	63	48	5
TAP	63	72	0
TAP	63	96	4
TAP	63	120	1
TAP	63	144	3
TAP	63	168	2
BRK	63	192	5
TAP	63	216	4
TAP	63	240	6
TAP	63	264	3
TAP	63	288	2
TAP	63	288	7
BRK	63	336	1
BRK	63	336	6
TAP	64	48	0
TAP	64	48	7
TAP	64	64	1
TAP	64	64	6
TAP	64	80	2
TAP	64	80	5
BST	64	96	3
SI_	64	96	3	96	36	7
BST	64	96	4
SI_	64	96	4	96	36	0
BRK	64	144	2
BRK	64	144	5
BRK	64	192	3
BRK	64	192	4
BRK	64	288	1
BRK	64	288	6
TAP	65	0	2
TAP	65	0	4
TAP	65	48	1
TAP	65	96	6
TAP	65	120	4
TAP	65	144	5
TAP	65	192	2
TAP	65	192	6
TAP	65	240	7
TAP	65	288	1
TAP	65	312	4
TAP	65	336	2
TAP	65	360	3
TAP	66	0	1
TAP	66	0	4
TAP	66	48	0
TAP	66	96	5
TAP	66	120	4
TAP	66	144	6
TAP	66	168	3
TAP	66	192	2
TAP	66	192	4
TAP	66	240	5
TAP	66	240	7
TAP	66	288	0
TAP	66	288	2
TAP	66	336	1
TAP	66	336	4
TAP	67	0	3
TAP	67	0	5
TAP	67	48	6
TAP	67	96	1
TAP	67	120	3
TAP	67	144	2
TAP	67	192	1
TAP	67	192	5
TAP	67	240	0
TAP	67	288	6
TAP	67	312	3
TAP	67	336	5
TAP	67	360	4
TAP	68	0	2
TAP	68	0	6
TAP	68	48	7
TAP	68	96	2
TAP	68	120	3
TAP	68	144	1
TAP	68	168	4
TAP	68	192	3
TAP	68	192	5
TAP	68	240	0
TAP	68	240	2
TAP	68	288	5
TAP	68	288	7
TAP	68	336	3
TAP	68	336	6
TAP	69	0	1
TAP	69	0	7
TAP	69	48	2
TAP	69	96	5
TAP	69	120	7
TAP	69	144	6
TAP	69	192	1
TAP	69	192	5
TAP	69	240	4
TAP	69	288	2
TAP	69	312	7
TAP	69	336	1
TAP	69	360	0
TAP	70	0	2
TAP	70	0	6
TAP	70	48	3
TAP	70	96	6
TAP	70	120	7
TAP	70	144	5
TAP	70	168	0
TAP	70	192	1
TAP	70	192	7
TAP	70	240	0
TAP	70	256	1
TAP	70	272	2
STR	70	288	3
SI_	70	288	3	96	24	7
TAP	70	336	7
BRK	71	0	3
TAP	71	48	6
TAP	71	72	0
STR	71	96	6
SI_	71	96	6	96	24	2
TAP	71	144	1
BRK	71	192	6
TAP	71	240	1
TAP	71	264	4
STR	71	288	1
SI_	71	288	1	96	24	5
TAP	71	336	6
BRK	72	0	1
TAP	72	48	6
TAP	72	72	7
BRK	72	96	6
TAP	72	144	0
BRK	72	192	0
TAP	72	204	1
TAP	72	216	2
TAP	72	228	3
TAP	72	240	4
TAP	72	252	5
TAP	72	264	6
TAP	72	276	7
BRK	72	288	0
BRK	72	288	4
TAP	73	0	3
TAP	73	0	5
TAP	73	48	2
TAP	73	96	0
TAP	73	120	1
TAP	73	144	0
TAP	73	192	1
TAP	73	192	4
TAP	73	240	5
TAP	73	288	7
TAP	73	312	6
TAP	73	336	7
TAP	73	360	6
TAP	74	0	1
TAP	74	0	5
TAP	74	48	6
STR	74	96	0
SI_	74	96	0	96	24	2
TAP	74	120	0
STR	74	144	7
SI_	74	144	7	96	24	3
TAP	74	168	7
STR	74	192	0
SI_	74	192	0	96	24	4
STR	74	240	7
SI_	74	240	7	96	24	5
TAP	74	288	0
TAP	74	336	7
TAP	75	0	2
TAP	75	0	4
TAP	75	48	5
TAP	75	96	7
TAP	75	120	6
TAP	75	144	7
TAP	75	192	3
TAP	75	192	6
TAP	75	240	2
TAP	75	288	0
TAP	75	312	1
TAP	75	336	0
TAP	75	360	1
TAP	76	0	2
TAP	76	0	6
TAP	76	48	1
STR	76	96	7
SI_	76	96	7	96	24	5
TAP	76	120	7
STR	76	144	0
SI_	76	144	0	96	24	4
TAP	76	168	0
STR	76	192	7
SI_	76	192	7	96	24	3
STR	76	240	0
SI_	76	240	0	96	24	2
TAP	76	288	7
TAP	76	336	0
BRK	77	0	7
TAP	77	12	6
TAP	77	24	5
TAP	77	36	4
TAP	77	48	3
TAP	77	60	2
TAP	77	72	1
TAP	77	84	0
TAP	77	96	3
TAP	77	96	7
TAP	77	144	7
TAP	77	168	0
TAP	77	192	7
STR	77	240	0
SI_	77	240	0	96	24	4
TAP	77	288	1
TAP	77	336	0
HLD	77	336	2	96
TAP	78	48	5
TAP	78	96	6
TAP	78	144	7
TAP	78	168	0
TAP	78	192	6
TAP	78	216	1
TAP	78	240	5
TAP	78	264	2
STR	78	288	4
SI_	78	288	4	96	24	0
TAP	78	336	3
BRK	79	0	4
TAP	79	48	1
TAP	79	72	2
STR	79	96	3
SI_	79	96	3	96	24	7
TAP	79	144	6
BRK	79	192	3
TAP	79	240	6
TAP	79	264	5
TAP	79	288	0
TAP	79	288	4
TAP	79	336	2
TAP	79	336	6
STR	80	0	0
SI_	80	0	0	96	36	3
STR	80	0	4
SI_	80	0	4	96	36	7
STR	80	96	0
SI_	80	96	0	96	36	5
STR	80	96	4
SI_	80	96	4	96	36	1
STR	80	192	0
SCR	80	192	0	96	36	3
STR	80	192	4
SCR	80	192	4	96	36	7
STR	80	288	0
SXR	80	288	0	96	384	5
STR	80	288	4
SXR	80	288	4	96	384	1
BRK	81	0	0
BRK	81	0	4

T_REC_TAP	851
T_REC_BRK	36
T_REC_XTP	0
T_REC_HLD	26
T_REC_XHO	0
T_REC_STR	42
T_REC_BST	2
T_REC_XST	0
T_REC_TTP	0
T_REC_THO	0
T_REC_SLD	44
T_REC_ALL	1001
T_NUM_TAP	893
T_NUM_BRK	38
T_NUM_HLD	26
T_NUM_SLD	44
T_NUM_ALL	1001
T_JUDGE_TAP	931
T_JUDGE_HLD	52
T_JUDGE_SLD	44
T_JUDGE_ALL	1027
TTM_EACHPAIRS	171
TTM_SCR_TAP	446500
TTM_SCR_BRK	98800
TTM_SCR_HLD	26000
TTM_SCR_SLD	66000
TTM_SCR_ALL	637300
TTM_SCR_S	614500
TTM_SCR_SS	633500
TTM_RAT_ACV	10059

