VERSION	0.00.00	1.03.00
FES_MODE	0
BPM_DEF	180.000	180.000	180.000	180.000
MET_DEF	4	4
RESOLUTION	384
CLK_DEF	384
COMPATIBLE_CODE	MA2

BPM	0	0	180.000
MET	0	0	4	4

TAP	1	0	1
TAP	1	96	2
TAP	1	192	3
TAP	1	288	4
TAP	2	0	6
TAP	2	96	5
TAP	2	192	4
TAP	2	288	3
TAP	3	0	1
TAP	3	96	0
TAP	3	192	7
TAP	3	288	6
TAP	4	0	4
TAP	4	96	5
TAP	4	192	6
TAP	4	288	7
TAP	5	0	0
TAP	5	0	6
TAP	5	96	7
TAP	5	192	5
TAP	5	288	3
TAP	6	0	2
TAP	6	0	4
TAP	6	96	3
TAP	6	192	5
TAP	6	288	7
TAP	7	0	0
TAP	7	0	6
TAP	7	96	3
TAP	7	192	2
TAP	7	192	4
TAP	7	288	7
TAP	8	0	4
TAP	8	0	5
TAP	8	96	2
TAP	8	96	3
TAP	8	192	0
TAP	8	192	1
BRK	8	288	6
BRK	8	288	7
TAP	9	0	0
TAP	9	48	0
TAP	9	96	2
TAP	9	144	2
TAP	9	192	4
TAP	9	240	4
TAP	9	288	6
TAP	9	336	6
TAP	10	0	7
TAP	10	48	7
TAP	10	96	5
TAP	10	144	5
TAP	10	192	3
TAP	10	240	3
TAP	10	288	1
TAP	10	336	1
TAP	11	0	2
TAP	11	48	6
TAP	11	96	2
TAP	11	144	6
TAP	11	192	1
TAP	11	240	5
TAP	11	288	1
TAP	11	336	5
TAP	12	0	0
TAP	12	48	4
TAP	12	96	0
TAP	12	144	4
TAP	12	192	7
TAP	12	240	3
TAP	12	288	7
TAP	12	336	3
TAP	13	0	2
TAP	13	0	6
TAP	13	48	7
TAP	13	96	0
TAP	13	144	1
TAP	13	192	2
TAP	13	240	3
TAP	13	288	4
TAP	13	336	5
TAP	14	0	2
TAP	14	0	6
TAP	14	48	1
TAP	14	96	0
TAP	14	144	7
TAP	14	192	6
TAP	14	240	5
TAP	14	288	4
TAP	14	336	3
TAP	15	0	1
TAP	15	0	2
TAP	15	48	3
TAP	15	96	4
TAP	15	144	5
TAP	15	192	6
TAP	15	192	7
TAP	15	240	0
TAP	15	288	1
TAP	15	336	2
TAP	16	0	0
TAP	16	0	4
TAP	16	96	3
TAP	16	96	7
TAP	16	192	2
TAP	16	192	6
BRK	16	288	1
BRK	16	288	5
TAP	17	0	0
TAP	17	48	7
TAP	17	96	1
TAP	17	120	0
TAP	17	144	2
TAP	17	192	4
TAP	17	240	3
TAP	17	288	5
TAP	17	312	4
TAP	17	336	6
TAP	18	0	2
TAP	18	48	3
TAP	18	96	3
TAP	18	120	4
TAP	18	144	2
BRK	18	192	4
BRK	18	240	6
BRK	18	288	0
BRK	18	336	2
TAP	19	0	7
TAP	19	48	0
TAP	19	96	6
TAP	19	120	7
TAP	19	144	5
TAP	19	192	3
TAP	19	240	4
TAP	19	288	2
TAP	19	312	3
TAP	19	336	1
TAP	20	0	5
TAP	20	48	4
TAP	20	96	4
TAP	20	120	3
TAP	20	144	5
BRK	20	192	3
BRK	20	240	1
BRK	20	288	7
BRK	20	336	5
TAP	21	0	1
TAP	21	48	0
TAP	21	96	2
TAP	21	120	3
TAP	21	144	2
TAP	21	192	6
TAP	21	240	7
TAP	21	288	5
TAP	21	312	4
TAP	21	336	5
TAP	22	0	3
TAP	22	48	4
TAP	22	96	1
TAP	22	120	7
TAP	22	144	0
BRK	22	192	2
BRK	22	240	4
BRK	22	288	6
BRK	22	336	0
TAP	23	0	7
TAP	23	48	0
TAP	23	96	6
TAP	23	144	1
TAP	23	192	5
TAP	23	240	2
TAP	23	288	4
TAP	23	336	3
TAP	24	0	4
TAP	24	24	2
TAP	24	48	5
TAP	24	72	3
TAP	24	96	6
TAP	24	120	4
TAP	24	144	5
TAP	24	168	3
TAP	24	192	4
TAP	24	216	2
TAP	24	240	3
TAP	24	264	1
BRK	24	288	7
TAP	25	0	7
TAP	25	48	1
TAP	25	96	5
TAP	25	120	4
TAP	25	144	6
TAP	25	192	0
TAP	25	240	6
TAP	25	288	2
TAP	25	312	3
TAP	25	336	1
TAP	26	0	5
TAP	26	48	7
TAP	26	96	1
TAP	26	120	3
TAP	26	144	1
BRK	26	192	7
BRK	26	240	5
BRK	26	288	3
BRK	26	336	1
TAP	27	0	2
TAP	27	48	1
TAP	27	96	0
TAP	27	120	6
TAP	27	144	1
TAP	27	192	7
TAP	27	240	1
TAP	27	288	5
TAP	27	312	3
TAP	27	336	4
TAP	28	0	2
TAP	28	48	4
TAP	28	96	7
TAP	28	120	6
TAP	28	144	0
BRK	28	192	2
BRK	28	240	4
BRK	28	288	6
BRK	28	336	0
TAP	29	0	4
TAP	29	48	0
TAP	29	96	5
TAP	29	120	6
TAP	29	144	5
TAP	29	192	3
TAP	29	240	7
TAP	29	288	1
TAP	29	312	0
TAP	29	336	1
TAP	30	0	5
TAP	30	48	1
TAP	30	96	3
TAP	30	120	2
TAP	30	144	3
BRK	30	192	2
BRK	30	240	0
BRK	30	288	6
BRK	30	336	4
TAP	31	0	0
TAP	31	48	1
TAP	31	96	2
TAP	31	144	3
TAP	31	192	4
TAP	31	240	5
TAP	31	288	6
TAP	31	336	7
TAP	32	0	0
TAP	32	0	1
TAP	32	96	3
TAP	32	96	6
TAP	32	192	2
TAP	32	192	7
BRK	32	288	4
BRK	32	288	5
TAP	33	0	1
TAP	33	48	2
TAP	33	96	5
TAP	33	144	4
TAP	33	192	6
TAP	33	240	5
TAP	33	288	7
TAP	33	336	0
TAP	34	0	2
TAP	34	48	7
TAP	34	96	1
TAP	34	144	0
TAP	34	192	6
TAP	34	240	7
TAP	34	288	0
TAP	34	336	1
TAP	35	0	1
TAP	35	48	0
TAP	35	96	5
TAP	35	144	4
TAP	35	192	2
TAP	35	240	3
TAP	35	288	6
TAP	35	336	7
TAP	36	0	2
TAP	36	48	5
TAP	36	96	0
TAP	36	144	7
TAP	36	192	5
TAP	36	240	4
TAP	36	288	3
TAP	36	336	2
TAP	37	0	3
TAP	37	0	5
TAP	37	48	4
TAP	37	96	3
TAP	37	144	2
TAP	37	192	1
TAP	37	192	3
TAP	37	240	2
TAP	37	288	3
TAP	37	336	4
TAP	38	0	3
TAP	38	0	5
TAP	38	48	4
TAP	38	96	5
TAP	38	144	6
TAP	38	192	5
TAP	38	192	7
TAP	38	240	6
TAP	38	288	7
TAP	38	336	0
TAP	39	0	1
TAP	39	0	7
TAP	39	192	0
TAP	39	192	7
TAP	40	0	0
TAP	40	0	3
TAP	40	96	1
TAP	40	96	6
TAP	40	192	4
TAP	40	192	7
BRK	40	288	2
BRK	40	288	5
TAP	41	0	1
TAP	41	48	4
TAP	41	96	2
TAP	41	120	3
TAP	41	144	1
TAP	41	192	6
TAP	41	240	3
TAP	41	288	5
TAP	41	312	4
TAP	41	336	6
TAP	42	0	1
TAP	42	48	0
TAP	42	96	7
TAP	42	120	6
TAP	42	144	0
TAP	42	192	7
TAP	42	240	3
TAP	42	288	1
TAP	42	336	5
TAP	43	0	0
TAP	43	48	4
TAP	43	96	3
TAP	43	120	5
TAP	43	144	3
TAP	43	192	7
TAP	43	240	3
TAP	43	288	4
TAP	43	312	2
TAP	43	336	4
TAP	44	0	2
TAP	44	48	6
TAP	44	96	7
TAP	44	120	5
TAP	44	144	7
TAP	44	192	6
TAP	44	240	2
TAP	44	288	5
TAP	44	336	3
TAP	45	0	2
TAP	45	48	7
TAP	45	72	0
TAP	45	96	7
TAP	45	144	2
TAP	45	192	1
TAP	45	240	0
TAP	45	288	7
TAP	45	336	6
TAP	46	0	5
TAP	46	48	4
TAP	46	96	3
TAP	46	144	4
TAP	46	192	5
TAP	46	240	6
TAP	46	288	7
TAP	46	336	0
TAP	47	0	0
TAP	47	0	1
TAP	47	48	1
TAP	47	96	0
TAP	47	144	0
TAP	47	192	6
TAP	47	192	7
TAP	47	240	6
TAP	47	288	7
TAP	47	336	7
TAP	48	0	1
TAP	48	0	2
TAP	48	96	2
TAP	48	96	3
TAP	48	192	4
TAP	48	192	5
BRK	48	288	5
BRK	48	288	6
TAP	49	0	2
TAP	49	96	1
TAP	49	192	0
TAP	49	288	7
HLD	49	336	7	144
STR	50	96	5
SI_	50	96	5	96	48	0
STR	50	192	7
SCR	50	192	7	96	48	2
TAP	51	0	5
TAP	51	96	6
TAP	51	192	7
TAP	51	288	0
HLD	51	336	1	144
STR	52	96	2
SI_	52	96	2	96	48	7
STR	52	192	0
SCL	52	192	0	96	48	5
TAP	53	0	6
TAP	53	96	0
TAP	53	192	2
TAP	53	288	4
HLD	53	336	3	144
STR	54	96	2
SCL	54	96	2	96	48	7
STR	54	192	3
SI_	54	192	3	96	48	0
HLD	55	0	7	96
HLD	55	96	5	96
HLD	55	192	3	96
TAP	55	288	1
HLD	55	336	7	240
TAP	56	96	5
HLD	56	192	2	96
BRK	56	288	0
BRK	56	336	0
TAP	57	0	2
TAP	57	48	3
TAP	57	96	5
TAP	57	144	4
TAP	57	192	2
TAP	57	240	4
TAP	57	288	3
TAP	57	336	5
TAP	58	0	1
TAP	58	48	0
TAP	58	96	6
TAP	58	144	7
TAP	58	192	1
TAP	58	240	7
TAP	58	288	0
TAP	58	336	6
TAP	59	0	0
TAP	59	48	1
TAP	59	96	2
TAP	59	144	3
TAP	59	192	4
TAP	59	240	5
TAP	59	288	6
TAP	59	336	7
TAP	60	0	7
TAP	60	48	6
TAP	60	96	5
TAP	60	144	4
TAP	60	192	3
TAP	60	240	2
TAP	60	288	1
TAP	60	336	0
TAP	61	0	1
TAP	61	48	0
TAP	61	48	7
TAP	61	96	6
TAP	61	144	0
TAP	61	144	7
TAP	61	192	2
TAP	61	240	0
TAP	61	240	7
TAP	61	288	5
TAP	61	336	0
TAP	61	336	7
TAP	62	0	2
TAP	62	48	1
TAP	62	48	3
TAP	62	96	3
TAP	62	144	2
TAP	62	144	4
TAP	62	192	5
TAP	62	240	4
TAP	62	240	6
TAP	62	288	4
TAP	62	336	3
TAP	62	336	5
TAP	63	0	1
TAP	63	24	0
TAP	63	48	2
TAP	63	72	7
TAP	63	96	1
TAP	63	144	6
TAP	63	168	7
TAP	63	192	5
TAP	63	216	0
TAP	63	240	6
TAP	63	288	0
TAP	63	312	7
TAP	63	336	1
TAP	63	360	6
TAP	64	0	3
TAP	64	24	4
TAP	64	48	2
TAP	64	72	5
TAP	64	96	3
TAP	64	120	6
TAP	64	144	1
TAP	64	168	4
TAP	64	192	2
TAP	64	216	5
TAP	64	240	3
TAP	64	264	4
BRK	64	288	2
TAP	65	0	2
TAP	65	48	1
TAP	65	96	0
TAP	65	120	6
TAP	65	144	1
TAP	65	168	7
TAP	65	192	3
TAP	65	240	5
TAP	65	288	7
TAP	65	312	0
TAP	65	336	6
TAP	65	360	1
TAP	66	0	5
TAP	66	48	3
TAP	66	96	7
TAP	66	120	2
TAP	66	144	0
TAP	66	168	1
BRK	66	192	7
BRK	66	240	5
BRK	66	288	3
BRK	66	336	1
TAP	67	0	5
TAP	67	48	0
TAP	67	96	6
TAP	67	120	0
TAP	67	144	7
TAP	67	168	1
TAP	67	192	4
TAP	67	240	2
TAP	67	288	6
TAP	67	312	7
TAP	67	336	5
TAP	67	360	0
TAP	68	0	6
TAP	68	48	2
TAP	68	96	0
TAP	68	120	1
TAP	68	144	7
TAP	68	168	2
BRK	68	192	3
BRK	68	240	5
BRK	68	288	7
BRK	68	336	1
TAP	69	0	7
TAP	69	48	2
TAP	69	96	5
TAP	69	120	4
TAP	69	144	6
TAP	69	168	3
TAP	69	192	4
TAP	69	240	0
TAP	69	288	3
TAP	69	312	2
TAP	69	336	4
TAP	69	360	1
TAP	70	0	5
TAP	70	48	6
TAP	70	96	2
TAP	70	120	5
TAP	70	144	3
TAP	70	168	4
BRK	70	192	0
BRK	70	240	2
BRK	70	288	4
BRK	70	336	6
HLD	71	0	7	288
HLD	71	192	0	96
TAP	72	0	1
TAP	72	24	0
TAP	72	48	2
TAP	72	72	7
TAP	72	96	3
TAP	72	120	6
TAP	72	144	4
TAP	72	168	5
HLD	72	192	2	96
BRK	72	288	5
TAP	73	0	7
TAP	73	48	1
TAP	73	96	5
TAP	73	120	4
TAP	73	144	5
TAP	73	168	4
TAP	73	192	6
TAP	73	240	0
TAP	73	288	3
TAP	73	312	2
TAP	73	336	3
TAP	73	360	2
TAP	74	0	5
TAP	74	48	7
TAP	74	96	2
TAP	74	120	0
TAP	74	144	2
TAP	74	168	0
BRK	74	192	2
BRK	74	240	6
BRK	74	288	0
BRK	74	336	4
TAP	75	0	2
TAP	75	48	1
TAP	75	96	0
TAP	75	120	6
TAP	75	144	1
TAP	75	168	7
TAP	75	192	2
TAP	75	240	4
TAP	75	288	0
TAP	75	312	4
TAP	75	336	2
TAP	75	360	6
TAP	76	0	3
TAP	76	48	6
TAP	76	96	1
TAP	76	120	7
TAP	76	144	2
TAP	76	168	4
TAP	76	192	3
TAP	76	216	7
TAP	76	240	0
TAP	76	264	5
TAP	76	288	1
TAP	76	312	7
TAP	76	336	0
TAP	76	360	6
HLD	77	0	0	144
TAP	77	144	7
TAP	77	168	1
TAP	77	192	7
TAP	77	240	5
TAP	77	288	3
HLD	77	336	1	192
TAP	78	48	0
TAP	78	96	7
TAP	78	144	6
TAP	78	192	2
TAP	78	216	3
TAP	78	240	1
TAP	78	264	4
TAP	78	288	0
TAP	78	312	5
TAP	78	336	7
TAP	78	360	6
BRK	79	0	0
TAP	79	192	0
TAP	79	192	7
TAP	79	240	3
TAP	79	264	4
TAP	79	288	3
TAP	79	336	0
TAP	79	336	7
STR	80	0	0
SI_	80	0	0	96	48	3
STR	80	96	0
SI_	80	96	0	96	48	5
STR	80	192	0
SI_	80	192	0	96	48	4
STR	80	288	0
SCL	80	288	0	96	144	5

T_REC_TAP	586
T_REC_BRK	56
T_REC_XTP	0
T_REC_HLD	13
T_REC_XHO	0
T_REC_STR	10
T_REC_BST	0
T_REC_XST	0
T_REC_TTP	0
T_REC_THO	0
T_REC_SLD	10
T_REC_ALL	675
T_NUM_TAP	596
T_NUM_BRK	56
T_NUM_HLD	13
T_NUM_SLD	10
T_NUM_ALL	675
T_JUDGE_TAP	652
T_JUDGE_HLD	39
T_JUDGE_SLD	10
T_JUDGE_ALL	701
TTM_EACHPAIRS	46
TTM_SCR_TAP	298000
TTM_SCR_BRK	145600
TTM_SCR_HLD	13000
TTM_SCR_SLD	15000
TTM_SCR_ALL	471600
TTM_SCR_S	452050
TTM_SCR_SS	466000
TTM_RAT_ACV	10120

