VERSION	0.00.00	1.03.00
FES_MODE	0
BPM_DEF	180.000	180.000	180.000	180.000
MET_DEF	4	4
RESOLUTION	384
CLK_DEF	384
COMPATIBLE_CODE	MA2

BPM	0	0	180.000
MET	0	0	4	4

TAP	1	0	1
TAP	1	48	1
TAP	1	96	0
TAP	1	192	7
TAP	1	288	7
TAP	2	0	6
TAP	2	48	6
TAP	2	96	5
TAP	2	192	5
TAP	2	240	4
TAP	2	288	3
TAP	3	0	1
TAP	3	48	1
TAP	3	96	2
TAP	3	192	3
TAP	3	288	3
TAP	4	0	4
TAP	4	48	4
TAP	4	96	5
TAP	4	192	5
TAP	4	240	6
TAP	4	288	7
TAP	5	0	6
TAP	5	48	6
TAP	5	96	5
TAP	5	192	4
TAP	5	288	4
TAP	6	0	3
TAP	6	48	3
TAP	6	96	2
TAP	6	192	2
TAP	6	240	1
TAP	6	288	0
TAP	7	0	0
TAP	7	0	7
TAP	7	192	2
TAP	7	192	5
TAP	8	0	3
TAP	8	0	4
TAP	8	96	2
TAP	8	96	5
TAP	8	192	1
TAP	8	192	6
BRK	8	288	0
BRK	8	288	7
TAP	9	0	1
TAP	9	48	1
TAP	9	96	0
TAP	9	192	7
TAP	9	240	0
TAP	9	288	7
TAP	10	0	6
TAP	10	48	6
TAP	10	96	5
TAP	10	192	5
TAP	10	240	4
TAP	10	288	3
TAP	10	336	2
TAP	11	0	1
TAP	11	48	1
TAP	11	96	2
TAP	11	192	3
TAP	11	240	2
TAP	11	288	3
TAP	12	0	4
TAP	12	48	4
TAP	12	96	5
TAP	12	192	5
TAP	12	240	6
TAP	12	288	7
TAP	12	336	0
TAP	13	0	6
TAP	13	48	6
TAP	13	96	5
TAP	13	192	4
TAP	13	240	5
TAP	13	288	4
TAP	14	0	3
TAP	14	48	3
TAP	14	96	2
TAP	14	192	2
TAP	14	240	1
TAP	14	288	0
TAP	15	0	5
TAP	15	48	6
TAP	15	96	5
TAP	15	192	2
TAP	15	240	1
TAP	15	288	2
BRK	16	0	3
BRK	16	0	4
BRK	16	96	2
BRK	16	96	5
BRK	16	192	1
BRK	16	192	6
BRK	16	288	0
BRK	16	288	7
TAP	17	0	1
TAP	17	48	1
TAP	17	96	0
TAP	17	144	0
TAP	17	192	7
TAP	17	240	7
TAP	17	288	6
TAP	17	336	6
TAP	18	0	5
TAP	18	48	4
TAP	18	96	3
TAP	18	144	2
STR	18	192	1
SI_	18	192	1	96	48	5
TAP	19	0	6
TAP	19	48	6
TAP	19	96	7
TAP	19	144	7
TAP	19	192	0
TAP	19	240	0
TAP	19	288	1
TAP	19	336	1
TAP	20	0	2
TAP	20	48	3
TAP	20	96	4
TAP	20	144	5
TAP	20	192	6
TAP	20	240	2
TAP	20	288	4
TAP	20	336	0
TAP	21	0	1
TAP	21	48	1
TAP	21	96	0
TAP	21	144	0
TAP	21	192	7
TAP	21	240	7
TAP	21	288	6
TAP	21	336	6
TAP	22	0	5
TAP	22	48	4
TAP	22	96	3
TAP	22	144	2
STR	22	192	1
SI_	22	192	1	96	48	5
TAP	23	0	2
TAP	23	0	4
TAP	23	192	3
TAP	23	192	5
TAP	24	0	1
TAP	24	0	7
TAP	24	96	2
TAP	24	96	6
TAP	24	192	3
TAP	24	192	5
BRK	24	288	4
TAP	25	0	5
TAP	25	48	5
TAP	25	96	4
TAP	25	144	4
TAP	25	192	3
TAP	25	240	3
TAP	25	288	2
TAP	25	336	2
TAP	26	0	1
TAP	26	48	0
TAP	26	96	7
TAP	26	144	6
STR	26	192	5
SI_	26	192	5	96	48	1
TAP	27	0	2
TAP	27	48	2
TAP	27	96	3
TAP	27	144	3
TAP	27	192	4
TAP	27	240	4
TAP	27	288	5
TAP	27	336	5
TAP	28	0	6
TAP	28	48	7
TAP	28	96	0
TAP	28	144	1
TAP	28	192	2
TAP	28	240	6
TAP	28	288	0
TAP	28	336	4
TAP	29	0	5
TAP	29	48	5
TAP	29	96	4
TAP	29	144	4
TAP	29	192	3
TAP	29	240	3
TAP	29	288	2
TAP	29	336	2
TAP	30	0	1
TAP	30	48	0
TAP	30	96	7
TAP	30	144	6
STR	30	192	5
SI_	30	192	5	96	48	1
TAP	31	0	0
TAP	31	144	2
TAP	31	192	4
TAP	31	240	3
TAP	31	264	4
TAP	31	288	3
TAP	31	336	5
STR	32	0	2
SCR	32	0	2	96	96	5
TAP	33	0	1
TAP	33	48	1
TAP	33	96	5
TAP	33	144	5
TAP	33	192	3
TAP	33	240	3
TAP	33	288	7
TAP	33	336	7
TAP	34	0	1
TAP	34	48	0
TAP	34	96	7
TAP	34	144	6
STR	34	192	7
SI_	34	192	7	96	48	3
TAP	35	0	0
TAP	35	48	0
TAP	35	96	4
TAP	35	144	4
TAP	35	192	2
TAP	35	240	2
TAP	35	288	6
TAP	35	336	6
TAP	36	0	1
TAP	36	48	0
TAP	36	96	7
TAP	36	144	6
TAP	36	192	0
TAP	36	240	7
TAP	36	264	0
TAP	36	288	7
TAP	37	0	0
TAP	37	48	7
TAP	37	96	1
TAP	37	144	6
TAP	37	192	2
TAP	37	240	5
TAP	37	288	3
TAP	38	0	4
TAP	38	48	3
TAP	38	96	5
TAP	38	144	2
TAP	38	192	6
TAP	38	240	1
TAP	38	288	7
TAP	39	0	2
TAP	39	48	2
TAP	39	96	3
TAP	39	144	3
TAP	39	192	4
TAP	39	240	4
TAP	39	288	5
TAP	39	336	5
TAP	40	0	6
TAP	40	48	7
TAP	40	96	0
TAP	40	144	1
BRK	40	192	0
BRK	40	288	7
TAP	41	0	6
TAP	41	48	6
TAP	41	96	2
TAP	41	144	2
TAP	41	192	4
TAP	41	240	4
TAP	41	288	0
TAP	41	336	0
TAP	42	0	6
TAP	42	48	7
TAP	42	96	0
TAP	42	144	1
STR	42	192	0
SI_	42	192	0	96	48	4
TAP	43	0	7
TAP	43	48	7
TAP	43	96	3
TAP	43	144	3
TAP	43	192	5
TAP	43	240	5
TAP	43	288	1
TAP	43	336	1
TAP	44	0	6
TAP	44	48	7
TAP	44	96	0
TAP	44	144	1
TAP	44	192	7
TAP	44	240	0
TAP	44	264	7
TAP	44	288	0
TAP	45	0	7
TAP	45	48	0
TAP	45	96	6
TAP	45	144	1
TAP	45	192	5
TAP	45	240	2
TAP	45	288	4
TAP	46	0	3
TAP	46	48	4
TAP	46	96	2
TAP	46	144	5
TAP	46	192	1
TAP	46	240	6
TAP	46	288	0
TAP	47	0	3
TAP	47	48	4
TAP	47	96	5
TAP	47	144	6
TAP	47	192	7
TAP	47	240	0
TAP	47	288	1
TAP	47	336	2
BRK	48	0	3
BRK	48	0	4
TAP	48	48	3
TAP	48	48	4
BRK	48	96	2
BRK	48	96	5
TAP	48	144	2
TAP	48	144	5
BRK	48	192	1
BRK	48	192	6
TAP	48	240	1
TAP	48	240	6
BRK	48	288	0
BRK	48	288	7
HLD	49	0	7	96
TAP	49	96	6
HLD	49	192	5	144
TAP	49	288	6
TAP	49	336	6
HLD	50	96	3	96
HLD	50	192	4	96
TAP	50	288	3
HLD	51	0	0	96
TAP	51	96	1
HLD	51	192	2	144
TAP	51	288	1
TAP	51	336	1
HLD	52	96	4	96
HLD	52	192	3	96
TAP	52	288	4
TAP	52	336	5
HLD	53	0	7	96
TAP	53	96	6
HLD	53	192	5	144
TAP	53	288	6
TAP	53	336	6
HLD	54	96	3	96
HLD	54	192	4	96
TAP	54	288	3
HLD	55	0	0	96
TAP	55	96	1
HLD	55	192	2	144
TAP	55	288	1
TAP	55	336	1
HLD	56	96	4	96
HLD	56	192	3	96
TAP	56	288	4
TAP	57	0	6
TAP	57	0	7
TAP	57	96	0
TAP	57	96	1
TAP	57	192	1
TAP	57	192	6
TAP	57	288	3
TAP	57	288	4
TAP	57	336	3
TAP	57	336	4
TAP	58	96	1
TAP	58	96	7
TAP	58	192	2
TAP	58	192	6
TAP	58	288	3
TAP	58	288	5
TAP	59	0	0
TAP	59	0	1
TAP	59	96	6
TAP	59	96	7
TAP	59	192	1
TAP	59	192	6
TAP	59	240	2
TAP	59	240	5
TAP	59	336	3
TAP	59	336	4
TAP	60	96	0
TAP	60	96	6
TAP	60	192	1
TAP	60	192	5
TAP	60	288	2
TAP	60	288	4
TAP	61	0	6
TAP	61	0	7
TAP	61	96	0
TAP	61	96	1
TAP	61	192	1
TAP	61	192	6
TAP	61	288	6
TAP	61	288	7
TAP	61	336	6
TAP	61	336	7
TAP	62	0	0
TAP	62	0	1
TAP	62	96	6
TAP	62	96	7
TAP	62	192	1
TAP	62	192	6
TAP	62	288	3
TAP	62	288	4
TAP	62	336	3
TAP	62	336	4
TAP	63	0	2
TAP	63	0	5
TAP	63	192	0
TAP	63	192	7
TAP	64	0	4
TAP	64	48	3
TAP	64	72	4
TAP	64	96	3
TAP	64	144	5
TAP	64	168	2
BRK	64	192	5
BRK	64	288	2
TAP	65	0	1
TAP	65	48	0
TAP	65	96	1
TAP	65	120	0
TAP	65	144	1
TAP	65	192	6
TAP	65	240	7
TAP	65	288	6
TAP	65	312	7
TAP	65	336	6
TAP	66	0	5
TAP	66	48	4
TAP	66	96	3
TAP	66	144	2
STR	66	192	1
SI_	66	192	1	96	48	5
TAP	67	0	6
TAP	67	48	7
TAP	67	96	6
TAP	67	120	7
TAP	67	144	6
TAP	67	192	1
TAP	67	240	0
TAP	67	288	1
TAP	67	312	0
TAP	67	336	1
TAP	68	0	2
TAP	68	48	3
TAP	68	96	4
TAP	68	144	5
BRK	68	192	6
BRK	68	240	4
BRK	68	288	2
BRK	68	336	0
TAP	69	0	6
TAP	69	48	7
TAP	69	96	6
TAP	69	120	7
TAP	69	144	6
TAP	69	192	1
TAP	69	240	0
TAP	69	288	1
TAP	69	312	0
TAP	69	336	1
TAP	70	0	2
TAP	70	48	3
TAP	70	96	4
TAP	70	144	5
STR	70	192	6
SI_	70	192	6	96	48	3
STR	70	192	7
SI_	70	192	7	96	48	2
TAP	71	0	2
TAP	71	0	5
TAP	71	192	1
TAP	71	192	6
TAP	72	0	0
TAP	72	24	7
TAP	72	48	0
TAP	72	72	7
TAP	72	96	1
TAP	72	120	6
TAP	72	144	1
TAP	72	168	6
BRK	72	192	2
BRK	72	288	5
TAP	73	0	1
TAP	73	48	0
TAP	73	96	1
TAP	73	120	0
TAP	73	144	1
TAP	73	192	6
TAP	73	240	7
TAP	73	288	6
TAP	73	312	7
TAP	73	336	6
TAP	74	0	0
TAP	74	48	7
TAP	74	96	0
TAP	74	120	7
TAP	74	144	0
BRK	74	192	1
BRK	74	192	6
BRK	74	240	1
BRK	74	240	6
BRK	74	288	3
BRK	74	288	4
BRK	74	336	3
BRK	74	336	4
TAP	75	0	2
TAP	75	48	3
TAP	75	96	2
TAP	75	120	3
TAP	75	144	2
TAP	75	192	5
TAP	75	240	4
TAP	75	288	5
TAP	75	312	4
TAP	75	336	5
TAP	76	0	3
TAP	76	48	4
TAP	76	96	3
TAP	76	120	4
TAP	76	144	3
BRK	76	192	2
BRK	76	192	5
BRK	76	240	2
BRK	76	240	5
BRK	76	288	0
BRK	76	288	7
BRK	76	336	0
BRK	76	336	7
STR	77	0	0
SCR	77	0	0	96	48	3
STR	77	0	7
SCL	77	0	7	96	48	4
TAP	77	192	3
TAP	77	240	4
TAP	77	264	3
TAP	77	288	4
TAP	77	336	2
TAP	78	48	3
TAP	78	96	4
TAP	78	144	5
TAP	78	192	4
TAP	78	240	3
TAP	78	288	2
TAP	78	336	1
TAP	79	0	0
TAP	79	192	0
TAP	79	240	7
TAP	79	264	0
TAP	79	288	7
STR	79	336	0
SCL	79	336	0	96	48	5
STR	80	0	5
SCL	80	0	5	96	48	2

T_REC_TAP	474
T_REC_BRK	45
T_REC_XTP	0
T_REC_HLD	16
T_REC_XHO	0
T_REC_STR	14
T_REC_BST	0
T_REC_XST	0
T_REC_TTP	0
T_REC_THO	0
T_REC_SLD	14
T_REC_ALL	563
T_NUM_TAP	488
T_NUM_BRK	45
T_NUM_HLD	16
T_NUM_SLD	14
T_NUM_ALL	563
T_JUDGE_TAP	533
T_JUDGE_HLD	36
T_JUDGE_SLD	14
T_JUDGE_ALL	583
TTM_EACHPAIRS	62
TTM_SCR_TAP	244000
TTM_SCR_BRK	117000
TTM_SCR_HLD	16000
TTM_SCR_SLD	21000
TTM_SCR_ALL	398000
TTM_SCR_S	381700
TTM_SCR_SS	393500
TTM_RAT_ACV	10114

