VERSION	0.00.00	1.03.00
FES_MODE	0
BPM_DEF	180.000	180.000	180.000	180.000
MET_DEF	4	4
RESOLUTION	384
CLK_DEF	384
COMPATIBLE_CODE	MA2

BPM	0	0	180.000
MET	0	0	4	4

TAP	1	0	0
TAP	1	96	1
TAP	1	192	2
TAP	1	288	3
TAP	2	0	4
TAP	2	96	5
TAP	2	192	6
TAP	3	0	7
TAP	3	96	6
TAP	3	192	5
TAP	3	288	4
TAP	4	0	3
TAP	4	96	2
TAP	4	192	1
TAP	5	0	0
TAP	5	96	1
TAP	5	192	2
TAP	5	288	3
TAP	6	0	7
TAP	6	96	6
TAP	6	192	5
TAP	6	288	4
TAP	7	0	2
TAP	7	96	2
TAP	7	192	1
TAP	7	288	1
TAP	8	0	0
TAP	8	96	0
TAP	8	192	7
BRK	8	288	7
TAP	9	0	6
TAP	9	96	7
TAP	9	192	0
TAP	9	288	1
TAP	10	0	1
TAP	10	96	0
TAP	10	192	7
TAP	10	288	6
TAP	11	0	5
TAP	11	96	4
TAP	11	192	3
TAP	11	288	2
TAP	12	0	2
TAP	12	96	3
TAP	12	192	4
TAP	12	288	5
TAP	13	0	6
TAP	13	96	6
TAP	13	192	7
TAP	13	288	7
TAP	14	0	0
TAP	14	96	0
TAP	14	192	1
TAP	14	288	1
TAP	15	0	2
TAP	15	96	3
TAP	15	192	4
TAP	15	288	5
TAP	16	0	6
TAP	16	96	7
TAP	16	192	0
BRK	16	288	1
TAP	17	0	1
TAP	17	96	1
TAP	17	192	0
TAP	17	288	0
TAP	18	0	7
TAP	18	96	7
TAP	18	192	6
TAP	18	192	7
TAP	18	288	6
TAP	18	288	7
TAP	19	0	6
TAP	19	96	6
TAP	19	192	7
TAP	19	288	7
TAP	20	0	0
TAP	20	96	0
TAP	20	192	0
TAP	20	192	1
TAP	20	288	0
TAP	20	288	1
TAP	21	0	1
TAP	21	96	1
TAP	21	192	6
TAP	21	288	6
TAP	22	0	0
TAP	22	96	0
HLD	22	192	0	96
HLD	22	192	7	96
HLD	23	0	1	96
HLD	23	192	6	96
HLD	24	0	0	96
HLD	24	96	7	96
BRK	24	192	0
TAP	25	0	2
TAP	25	96	2
TAP	25	192	4
TAP	25	288	4
TAP	26	0	3
TAP	26	96	3
TAP	26	192	5
TAP	26	288	4
TAP	26	288	5
TAP	27	0	6
TAP	27	96	6
TAP	27	192	0
TAP	27	288	0
TAP	28	0	7
TAP	28	96	7
TAP	28	192	1
TAP	28	288	0
TAP	28	288	1
TAP	29	0	2
TAP	29	96	2
TAP	29	192	3
TAP	29	288	3
TAP	30	0	4
TAP	30	96	4
HLD	30	192	5	96
TAP	31	0	3
TAP	31	0	4
TAP	31	192	1
TAP	31	192	6
TAP	32	0	0
TAP	32	0	1
TAP	32	96	0
TAP	32	96	7
TAP	32	192	6
TAP	32	192	7
BRK	32	288	0
BRK	32	288	7
TAP	33	0	1
TAP	33	96	1
TAP	33	192	0
TAP	33	288	0
TAP	34	0	6
TAP	34	96	6
TAP	34	192	7
TAP	34	288	7
TAP	35	0	0
TAP	35	96	7
TAP	35	192	0
TAP	35	288	7
TAP	36	0	1
TAP	36	96	6
TAP	36	192	0
TAP	36	192	7
TAP	36	288	0
TAP	36	288	7
TAP	37	0	0
TAP	37	96	6
TAP	37	192	3
TAP	37	288	7
TAP	38	0	2
TAP	38	96	4
TAP	38	192	1
TAP	38	288	5
TAP	39	0	2
TAP	39	0	3
TAP	39	192	4
TAP	39	192	5
TAP	40	0	2
TAP	40	0	3
TAP	40	96	3
TAP	40	96	4
BRK	40	192	4
BRK	40	192	5
TAP	41	0	6
TAP	41	96	5
TAP	41	192	4
TAP	41	288	3
TAP	42	0	2
TAP	42	96	3
TAP	42	192	4
TAP	42	288	5
TAP	43	0	1
TAP	43	96	0
TAP	43	192	7
TAP	43	288	6
TAP	44	0	7
TAP	44	96	0
TAP	44	192	1
TAP	44	288	0
TAP	44	288	1
TAP	45	0	2
TAP	45	96	1
TAP	45	192	0
TAP	45	288	7
TAP	46	0	5
TAP	46	96	6
TAP	46	192	7
TAP	46	288	0
TAP	47	0	0
TAP	47	0	7
TAP	47	192	0
TAP	47	192	1
TAP	48	0	6
TAP	48	0	7
TAP	48	96	4
TAP	48	96	5
TAP	48	192	2
TAP	48	192	3
BRK	48	288	0
BRK	48	288	1
TAP	49	0	1
TAP	49	96	1
TAP	49	288	2
TAP	50	96	3
TAP	50	288	4
TAP	51	96	0
TAP	51	288	7
TAP	52	96	6
TAP	52	288	5
STR	53	0	5
SI_	53	0	5	96	192	2
STR	54	0	1
SI_	54	0	1	96	192	6
TAP	55	0	7
TAP	55	192	7
TAP	56	0	1
TAP	56	96	1
TAP	56	192	0
TAP	56	288	0
TAP	56	288	7
TAP	57	0	0
TAP	57	96	1
TAP	57	192	2
TAP	57	288	1
TAP	58	0	0
TAP	58	96	7
TAP	58	192	0
TAP	58	288	1
TAP	59	0	2
TAP	59	96	3
TAP	59	192	4
TAP	59	288	5
TAP	60	0	4
TAP	60	96	3
TAP	60	192	2
TAP	60	288	1
TAP	61	0	0
TAP	61	96	7
TAP	61	192	6
TAP	61	288	7
TAP	62	0	0
TAP	62	96	7
TAP	62	192	6
TAP	62	288	5
HLD	63	0	4	192
HLD	63	192	3	192
TAP	64	0	6
TAP	64	96	7
TAP	64	192	0
BRK	64	288	0
TAP	64	288	7
TAP	65	0	6
TAP	65	96	6
STR	65	192	6
SI_	65	192	6	96	96	2
TAP	66	0	0
TAP	66	96	0
STR	66	192	0
SI_	66	192	0	96	96	4
TAP	67	0	7
TAP	67	96	7
STR	67	192	7
SI_	67	192	7	96	96	3
TAP	68	0	1
TAP	68	96	1
STR	68	192	1
SI_	68	192	1	96	96	5
TAP	69	0	6
TAP	69	96	7
STR	69	192	7
SI_	69	192	7	96	96	3
TAP	70	0	1
TAP	70	96	0
STR	70	192	0
SI_	70	192	0	96	96	4
HLD	71	0	3	192
HLD	71	192	4	192
TAP	72	0	1
TAP	72	96	0
TAP	72	192	0
TAP	72	192	7
TAP	73	0	0
TAP	73	96	2
TAP	73	192	4
TAP	73	288	6
TAP	73	288	7
TAP	74	0	7
TAP	74	96	5
TAP	74	192	3
TAP	74	288	0
TAP	74	288	1
TAP	75	0	1
TAP	75	96	0
TAP	75	192	7
TAP	75	288	6
TAP	75	288	7
TAP	76	0	5
TAP	76	96	4
TAP	76	192	3
TAP	76	288	2
TAP	76	288	3
STR	77	0	0
SI_	77	0	0	96	192	3
STR	78	0	7
SI_	78	0	7	96	192	4
TAP	79	0	3
TAP	79	0	4
TAP	79	192	1
TAP	79	192	6
TAP	80	0	0
TAP	80	0	4
TAP	80	96	1
TAP	80	96	5
TAP	80	192	2
TAP	80	192	6
TAP	80	288	3
TAP	80	288	7
BRK	81	0	0
BRK	81	0	4

T_REC_TAP	281
T_REC_BRK	12
T_REC_XTP	0
T_REC_HLD	11
T_REC_XHO	0
T_REC_STR	10
T_REC_BST	0
T_REC_XST	0
T_REC_TTP	0
T_REC_THO	0
T_REC_SLD	10
T_REC_ALL	324
T_NUM_TAP	291
T_NUM_BRK	12
T_NUM_HLD	11
T_NUM_SLD	10
T_NUM_ALL	324
T_JUDGE_TAP	303
T_JUDGE_HLD	30
T_JUDGE_SLD	10
T_JUDGE_ALL	343
TTM_EACHPAIRS	41
TTM_SCR_TAP	145500
TTM_SCR_BRK	31200
TTM_SCR_HLD	11000
TTM_SCR_SLD	15000
TTM_SCR_ALL	202700
TTM_SCR_S	195500
TTM_SCR_SS	201500
TTM_RAT_ACV	10059

