VERSION	0.00.00	1.03.00
FES_MODE	0
BPM_DEF	180.000	180.000	180.000	180.000
MET_DEF	4	4
RESOLUTION	384
CLK_DEF	384
COMPATIBLE_CODE	MA2

BPM	0	0	180.000
MET	0	0	4	4

TAP	1	0	2
TAP	2	0	2
TAP	3	0	3
TAP	4	0	3
TAP	5	0	4
TAP	6	0	4
TAP	7	0	5
TAP	7	192	5
TAP	8	0	5
TAP	9	0	5
TAP	10	0	5
TAP	11	0	4
TAP	12	0	4
TAP	13	0	3
TAP	14	0	3
TAP	15	0	2
TAP	15	192	2
TAP	16	0	1
BRK	16	192	1
TAP	17	0	1
TAP	17	192	1
TAP	18	0	0
TAP	18	192	0
TAP	19	0	7
TAP	19	192	7
TAP	20	0	6
TAP	20	192	6
TAP	21	0	6
TAP	21	192	6
TAP	22	0	7
TAP	22	192	7
TAP	23	0	0
TAP	23	192	0
HLD	24	0	1	192
TAP	25	0	2
TAP	25	0	3
TAP	25	192	2
TAP	26	0	3
TAP	26	192	3
TAP	27	0	4
TAP	27	192	4
TAP	28	0	5
TAP	28	192	5
TAP	29	0	4
TAP	29	0	5
TAP	29	192	5
TAP	30	0	4
TAP	30	192	4
TAP	31	0	3
TAP	31	192	3
HLD	32	0	3	192
TAP	33	0	4
TAP	34	0	4
TAP	35	0	5
TAP	36	0	5
TAP	37	0	6
TAP	38	0	6
TAP	39	0	6
TAP	39	0	7
TAP	39	192	6
TAP	39	192	7
TAP	40	0	6
TAP	40	0	7
TAP	41	0	0
TAP	42	0	0
TAP	43	0	1
TAP	44	0	1
TAP	45	0	2
TAP	46	0	2
TAP	47	0	3
TAP	47	192	2
TAP	47	192	3
TAP	48	0	3
TAP	48	192	2
TAP	48	192	3
STR	49	0	2
SI_	49	0	2	96	288	5
STR	51	0	6
SI_	51	0	6	96	288	1
STR	53	0	0
SI_	53	0	0	96	288	4
STR	55	0	7
SI_	55	0	7	96	288	3
TAP	57	0	0
TAP	57	192	0
HLD	58	0	1	192
TAP	59	0	7
TAP	59	192	7
HLD	60	0	6	192
TAP	61	0	1
TAP	61	192	1
HLD	62	0	2	192
TAP	63	0	6
TAP	63	192	6
HLD	64	0	5	192
TAP	65	0	2
TAP	65	96	2
TAP	65	192	2
TAP	66	0	3
TAP	66	96	3
TAP	66	192	3
TAP	67	0	4
TAP	67	96	4
TAP	67	192	4
TAP	68	0	5
TAP	68	96	5
TAP	68	192	5
TAP	69	0	5
TAP	69	96	5
TAP	69	192	5
TAP	70	0	4
TAP	70	96	4
TAP	70	192	4
TAP	71	0	3
TAP	71	192	2
TAP	72	0	1
TAP	72	96	1
BRK	72	192	1
TAP	73	0	0
TAP	73	96	0
TAP	73	192	0
TAP	74	0	7
TAP	74	96	7
TAP	74	192	7
TAP	75	0	1
TAP	75	96	1
TAP	75	192	1
TAP	76	0	6
TAP	76	96	6
TAP	76	192	6
HLD	77	0	0	192
HLD	78	0	7	192
TAP	79	0	6
TAP	79	192	7
HLD	80	0	0	384

T_REC_TAP	116
T_REC_BRK	2
T_REC_XTP	0
T_REC_HLD	9
T_REC_XHO	0
T_REC_STR	4
T_REC_BST	0
T_REC_XST	0
T_REC_TTP	0
T_REC_THO	0
T_REC_SLD	4
T_REC_ALL	135
T_NUM_TAP	120
T_NUM_BRK	2
T_NUM_HLD	9
T_NUM_SLD	4
T_NUM_ALL	135
T_JUDGE_TAP	122
T_JUDGE_HLD	40
T_JUDGE_SLD	4
T_JUDGE_ALL	166
TTM_EACHPAIRS	7
TTM_SCR_TAP	60000
TTM_SCR_BRK	5200
TTM_SCR_HLD	9000
TTM_SCR_SLD	6000
TTM_SCR_ALL	80200
TTM_SCR_S	77600
TTM_SCR_SS	80000
TTM_RAT_ACV	10025

