VERSION	0.00.00	1.03.00
FES_MODE	0
BPM_DEF	183.000	183.000	183.000	183.000
MET_DEF	4	4
RESOLUTION	384
CLK_DEF	384
COMPATIBLE_CODE	MA2

BPM	0	0	183.000
MET	0	0	4	4

TAP	1	0	1
TAP	1	96	1
STR	1	192	1
SCR	1	192	1	96	48	4
TAP	2	0	1
TAP	2	96	3
TAP	2	144	3
TAP	2	192	5
TAP	2	288	3
TAP	2	288	7
TAP	3	0	6
TAP	3	96	4
TAP	3	144	4
TAP	3	192	2
TAP	3	288	0
TAP	3	288	4
TAP	4	0	1
TAP	4	96	3
TAP	4	144	3
TAP	4	192	5
TAP	4	288	3
TAP	4	288	7
TAP	5	0	1
TAP	5	0	5
TAP	5	96	3
TAP	5	96	7
TAP	5	192	1
TAP	5	192	5
TAP	5	288	3
STR	6	0	1
SCR	6	0	1	96	48	4
STR	6	192	1
SCR	6	192	1	96	48	4
STR	7	0	0
SI_	7	0	0	96	48	5
STR	7	0	1
SI_	7	0	1	96	48	4
STR	7	192	0
SI_	7	192	0	96	48	5
STR	7	192	1
SI_	7	192	1	96	48	4
STR	8	0	1
SCR	8	0	1	96	48	4
STR	8	192	1
SCR	8	192	1	96	48	4
STR	9	0	0
SI_	9	0	0	96	48	5
STR	9	0	1
SI_	9	0	1	96	48	4
STR	9	192	0
SI_	9	192	0	96	48	5
STR	9	192	1
SI_	9	192	1	96	48	4
STR	10	0	1
SCR	10	0	1	96	48	4
STR	10	192	0
SI_	10	192	0	96	48	5
STR	10	192	1
SI_	10	192	1	96	48	4
STR	11	0	1
SCR	11	0	1	96	48	4
STR	11	192	0
SI_	11	192	0	96	48	5
STR	11	192	1
SI_	11	192	1	96	48	4
STR	12	0	0
SCL	12	0	0	96	48	5
STR	12	0	1
SCR	12	0	1	96	48	4
STR	12	192	0
SI_	12	192	0	96	48	5
STR	12	192	1
SI_	12	192	1	96	48	4
TAP	13	0	0
TAP	13	0	1
TAP	13	72	0
TAP	13	72	7
TAP	13	144	6
TAP	13	144	7
STR	13	192	0
SCL	13	192	0	96	48	5
STR	13	192	1
SCR	13	192	1	96	48	4
HLD	14	0	1	96
TAP	14	0	2
TAP	14	192	5
HLD	14	192	6	96
TAP	15	0	1
TAP	15	0	4
TAP	15	96	3
HLD	15	96	6	96
STR	15	192	0
SI_	15	192	0	96	48	4
TAP	16	0	0
TAP	16	96	0
TAP	16	192	0
TAP	16	288	0
STR	17	0	1
SCR	17	0	1	96	48	4
TAP	17	96	1
STR	17	192	1
SCR	17	192	1	96	48	4
TAP	17	288	1
TAP	18	0	0
HLD	18	0	6	96
TAP	18	96	5
HLD	18	192	2	96
TAP	18	192	4
TAP	18	288	1
TAP	19	0	1
TAP	19	0	4
STR	19	96	1
SCR	19	96	1	96	96	4
STR	19	96	4
SI_	19	96	4	96	96	1
TAP	20	0	0
TAP	20	0	5
STR	20	96	0
SCL	20	96	0	96	96	5
STR	20	96	5
SI_	20	96	5	96	96	0
TAP	21	0	0
TAP	21	0	1
TAP	21	72	0
TAP	21	72	7
TAP	21	144	6
TAP	21	144	7
STR	21	192	0
SCL	21	192	0	96	48	5
STR	21	192	1
SCR	21	192	1	96	48	4
TAP	22	0	5
HLD	22	0	7	96
TAP	22	96	1
HLD	22	192	0	96
TAP	22	192	2
TAP	22	288	6
TAP	23	0	5
TAP	23	0	7
TAP	23	48	1
TAP	23	96	0
TAP	23	96	2
TAP	23	144	6
TAP	23	192	5
TAP	23	288	7
TAP	24	0	0
TAP	24	96	0
TAP	24	144	7
TAP	24	192	0
TAP	24	240	1
TAP	24	288	0
TAP	24	336	6
STR	25	0	1
SCR	25	0	1	96	48	4
TAP	25	96	1
STR	25	192	1
SCR	25	192	1	96	48	4
TAP	25	288	1
HLD	26	0	0	96
TAP	26	0	3
TAP	26	96	3
HLD	26	192	4	96
TAP	26	192	7
TAP	26	288	7
STR	27	0	6
SI_	27	0	6	96	48	2
STR	27	96	0
SI_	27	96	0	96	48	4
STR	27	192	7
SI_	27	192	7	96	48	3
STR	27	288	1
SCR	27	288	1	96	48	4
STR	28	96	0
SCL	28	96	0	96	48	5
STR	28	288	6
SI_	28	288	6	96	192	3
STR	28	288	7
SI_	28	288	7	96	192	2
STR	30	0	1
SCR	30	0	1	96	48	4
STR	30	192	1
SCR	30	192	1	96	48	4
TAP	31	0	5
TAP	31	48	6
TAP	31	96	7
STR	31	144	0
SCL	31	144	0	96	48	5
HLD	32	0	7	96
HLD	32	96	0	96
HLD	32	192	1	96
HLD	32	288	2	96
HLD	33	0	0	96
HLD	33	96	7	96
HLD	33	192	6	96
HLD	33	288	5	96
STR	34	0	0
SI_	34	0	0	96	48	4
TAP	34	96	3
STR	34	192	7
SI_	34	192	7	96	48	3
TAP	34	288	4
STR	35	0	1
SI_	35	0	1	96	48	5
TAP	35	96	2
STR	35	192	6
SI_	35	192	6	96	48	2
TAP	35	288	5
STR	36	0	3
SI_	36	0	3	96	48	6
TAP	36	96	3
STR	36	192	4
SI_	36	192	4	96	48	1
TAP	36	288	4
STR	37	0	2
SI_	37	0	2	96	48	7
TAP	37	96	2
STR	37	192	5
SI_	37	192	5	96	48	0
TAP	37	288	5
TAP	38	0	1
TAP	38	0	7
TAP	38	96	0
TAP	38	96	6
TAP	38	192	1
TAP	38	192	7
TAP	38	288	0
TAP	38	288	6
TAP	39	0	2
TAP	39	0	3
TAP	39	96	4
TAP	39	96	5
TAP	39	192	2
TAP	39	192	3
TAP	39	288	4
TAP	39	288	5
TAP	40	0	0
TAP	40	0	2
TAP	40	96	1
TAP	40	96	3
TAP	40	192	0
TAP	40	192	2
TAP	40	288	1
TAP	40	288	3
TAP	41	0	5
TAP	41	0	7
TAP	41	96	4
TAP	41	96	6
TAP	41	192	5
TAP	41	192	7
TAP	41	288	4
TAP	41	288	6
TAP	42	0	0
TAP	42	0	3
TAP	42	96	5
TAP	42	96	6
TAP	42	192	4
TAP	42	192	7
TAP	42	288	5
TAP	42	288	6
TAP	43	0	4
TAP	43	0	7
TAP	43	96	1
TAP	43	96	2
TAP	43	192	0
TAP	43	192	3
TAP	43	288	1
TAP	43	288	2
STR	44	0	0
SI_	44	0	0	96	48	4
STR	44	96	7
SI_	44	96	7	96	48	3
TAP	44	192	2
TAP	44	288	5
STR	45	0	3
SCL	45	0	3	96	96	0
STR	45	0	4
SCR	45	0	4	96	96	7
STR	46	0	0
SI_	46	0	0	96	48	5
STR	46	0	1
SI_	46	0	1	96	48	4
STR	46	192	0
SI_	46	192	0	96	48	5
STR	46	192	1
SI_	46	192	1	96	48	4
TAP	47	0	6
TAP	47	0	7
TAP	47	96	2
TAP	47	96	3
STR	47	192	0
SI_	47	192	0	96	48	5
STR	47	192	1
SI_	47	192	1	96	48	4
STR	48	0	1
SCR	48	0	1	96	48	4
STR	48	192	1
SCR	48	192	1	96	48	4
STR	49	0	0
SCL	49	0	0	96	48	5
STR	49	192	1
SCR	49	192	1	96	48	4
STR	50	0	0
SI_	50	0	0	96	48	5
STR	50	0	1
SI_	50	0	1	96	48	4
STR	50	192	0
SI_	50	192	0	96	48	5
STR	50	192	1
SI_	50	192	1	96	48	4
TAP	51	0	6
TAP	51	0	7
TAP	51	96	2
TAP	51	96	3
STR	51	192	0
SI_	51	192	0	96	48	5
STR	51	192	1
SI_	51	192	1	96	48	4
TAP	52	0	5
TAP	52	0	6
TAP	52	96	3
TAP	52	96	4
TAP	52	192	1
TAP	52	192	2
TAP	52	288	0
TAP	52	288	7
TAP	53	0	2
TAP	53	0	3
TAP	53	72	4
TAP	53	72	5
TAP	53	144	6
TAP	53	144	7
STR	53	192	0
SI_	53	192	0	96	48	5
STR	53	192	1
SI_	53	192	1	96	48	4
HLD	54	0	3	96
HLD	54	0	7	96
HLD	54	192	0	96
HLD	54	192	4	96
TAP	55	0	1
TAP	55	0	5
TAP	55	48	3
TAP	55	96	7
TAP	55	144	3
BRK	55	192	1
BRK	55	192	5
TAP	55	288	2
TAP	55	336	0
HLD	56	0	6	96
TAP	56	96	5
TAP	56	144	7
HLD	56	192	1	96
TAP	56	288	5
STR	57	0	1
SCR	57	0	1	96	48	4
TAP	57	96	1
STR	57	192	1
SCR	57	192	1	96	48	4
TAP	57	288	1
HLD	58	0	1	96
HLD	58	0	2	96
HLD	58	192	5	96
HLD	58	192	6	96
TAP	59	0	3
TAP	59	0	7
TAP	59	48	1
TAP	59	96	5
TAP	59	144	1
TAP	59	192	3
TAP	59	192	7
TAP	59	288	5
TAP	59	336	3
TAP	60	0	1
TAP	60	96	1
TAP	60	144	3
TAP	60	192	5
TAP	60	240	7
TAP	60	288	1
TAP	60	336	3
TAP	61	0	6
TAP	61	0	7
TAP	61	72	1
TAP	61	72	2
TAP	61	144	4
TAP	61	144	5
STR	61	192	0
SI_	61	192	0	96	48	5
STR	61	192	1
SI_	61	192	1	96	48	4
STR	62	0	0
SI_	62	0	0	96	48	4
TAP	62	96	3
STR	62	192	7
SI_	62	192	7	96	48	3
TAP	62	288	4
STR	63	0	0
SI_	63	0	0	96	48	4
STR	63	96	7
SI_	63	96	7	96	48	3
STR	63	192	0
SI_	63	192	0	96	48	4
STR	63	288	7
SI_	63	288	7	96	48	3
TAP	64	0	0
TAP	64	96	0
TAP	64	144	7
TAP	64	192	0
TAP	64	240	1
TAP	64	288	0
TAP	64	336	6
STR	65	0	1
SCR	65	0	1	96	48	4
TAP	65	96	1
STR	65	192	1
SCR	65	192	1	96	48	4
TAP	65	288	1
HLD	66	0	1	144
TAP	66	144	2
TAP	66	168	3
HLD	66	192	4	96
HLD	67	0	1	96
TAP	67	96	2
TAP	67	144	3
TAP	67	192	4
STR	67	288	1
SCR	67	288	1	96	48	4
TAP	68	96	1
TAP	68	144	1
STR	68	192	1
SCR	68	192	1	96	48	4
STR	69	0	6
SI_	69	0	6	96	96	3
STR	69	0	7
SI_	69	0	7	96	96	2
HLD	70	0	3	96
HLD	70	0	7	96
HLD	70	192	0	96
HLD	70	192	4	96
TAP	71	0	1
TAP	71	0	5
TAP	71	48	3
TAP	71	96	7
TAP	71	144	3
TAP	71	192	1
TAP	71	192	5
TAP	71	288	2
TAP	71	336	0
HLD	72	0	6	96
TAP	72	96	5
TAP	72	144	7
HLD	72	192	1	96
TAP	72	288	5
STR	73	0	1
SCR	73	0	1	96	48	4
BRK	73	96	1
STR	73	192	1
SCR	73	192	1	96	48	4
BRK	73	288	1
HLD	74	0	1	96
HLD	74	0	2	96
HLD	74	192	5	96
HLD	74	192	6	96
TAP	75	0	3
TAP	75	0	7
TAP	75	48	1
TAP	75	96	5
TAP	75	144	1
TAP	75	192	3
TAP	75	192	7
TAP	75	288	5
TAP	75	336	3
TAP	76	0	1
TAP	76	96	1
TAP	76	144	3
TAP	76	192	5
TAP	76	240	7
TAP	76	288	1
TAP	76	336	3
TAP	77	0	6
TAP	77	0	7
TAP	77	72	1
TAP	77	72	2
TAP	77	144	4
TAP	77	144	5
STR	77	192	0
SI_	77	192	0	96	48	5
STR	77	192	1
SI_	77	192	1	96	48	4
STR	78	0	0
SI_	78	0	0	96	48	4
TAP	78	96	3
STR	78	192	7
SI_	78	192	7	96	48	3
TAP	78	288	4
STR	79	0	0
SI_	79	0	0	96	48	4
STR	79	96	7
SI_	79	96	7	96	48	3
STR	79	192	0
SI_	79	192	0	96	48	4
STR	79	288	7
SI_	79	288	7	96	48	3
TAP	80	0	0
TAP	80	96	0
TAP	80	144	7
TAP	80	192	0
TAP	80	240	1
TAP	80	288	0
TAP	80	336	6
STR	81	0	1
SCR	81	0	1	96	48	4
BRK	81	96	1
STR	81	192	1
SCR	81	192	1	96	48	4
BRK	81	288	1
HLD	82	0	1	144
TAP	82	144	2
TAP	82	168	3
HLD	82	192	4	96
HLD	83	0	1	96
TAP	83	96	2
TAP	83	144	3
TAP	83	192	4
STR	83	288	1
SCR	83	288	1	96	192	4
TAP	84	288	1
TAP	84	336	1
STR	85	0	1
SCR	85	0	1	96	1824	4
TAP	91	0	1
TAP	91	24	0
TAP	91	48	7
TAP	91	72	6
TAP	91	96	5
TAP	91	120	4
TAP	91	144	3
TAP	91	168	2
STR	91	192	1
SCR	91	192	1	96	96	4

T_REC_TAP	276
T_REC_BRK	6
T_REC_XTP	0
T_REC_HLD	43
T_REC_XHO	0
T_REC_STR	107
T_REC_BST	0
T_REC_XST	0
T_REC_TTP	0
T_REC_THO	0
T_REC_SLD	107
T_REC_ALL	539
T_NUM_TAP	383
T_NUM_BRK	6
T_NUM_HLD	43
T_NUM_SLD	107
T_NUM_ALL	539
T_JUDGE_TAP	389
T_JUDGE_HLD	88
T_JUDGE_SLD	107
T_JUDGE_ALL	584
TTM_EACHPAIRS	107
TTM_SCR_TAP	191500
TTM_SCR_BRK	15600
TTM_SCR_HLD	43000
TTM_SCR_SLD	160500
TTM_SCR_ALL	410600
TTM_SCR_S	397700
TTM_SCR_SS	410000
TTM_RAT_ACV	10014

