VERSION	0.00.00	1.03.00
FES_MODE	0
BPM_DEF	183.000	183.000	183.000	183.000
MET_DEF	4	4
RESOLUTION	384
CLK_DEF	384
COMPATIBLE_CODE	MA2

BPM	0	0	183.000
MET	0	0	4	4

TAP	4	0	1
TAP	4	192	2
TAP	5	0	1
TAP	5	96	2
TAP	5	192	3
HLD	6	0	2	96
HLD	6	192	2	96
STR	7	0	1
SI_	7	0	1	96	48	4
STR	7	192	1
SI_	7	192	1	96	48	4
HLD	8	0	2	96
HLD	8	192	2	96
STR	9	0	1
SI_	9	0	1	96	48	4
STR	9	192	1
SI_	9	192	1	96	48	4
STR	10	0	1
SI_	10	0	1	96	48	4
TAP	10	96	1
STR	10	192	1
SI_	10	192	1	96	48	4
TAP	10	288	1
STR	11	0	1
SI_	11	0	1	96	48	5
TAP	11	96	1
STR	11	192	1
SI_	11	192	1	96	48	5
TAP	11	288	1
STR	12	0	0
SI_	12	0	0	96	48	5
BRK	12	96	0
STR	12	192	0
SI_	12	192	0	96	48	5
BRK	12	288	0
TAP	13	0	0
TAP	13	96	0
HLD	13	192	0	96
HLD	14	0	7	192
TAP	14	192	1
TAP	15	0	0
TAP	15	0	6
TAP	15	96	1
TAP	15	96	7
TAP	15	192	0
TAP	15	192	6
TAP	15	288	7
TAP	16	0	7
TAP	16	96	0
HLD	16	192	0	96
STR	17	0	0
SI_	17	0	0	96	48	5
STR	17	192	0
SI_	17	192	0	96	48	5
HLD	18	0	7	192
HLD	18	192	1	192
TAP	19	0	2
TAP	19	96	4
TAP	19	96	5
TAP	19	192	2
TAP	19	192	3
STR	19	288	7
SCR	19	288	7	96	96	2
STR	20	96	3
SCR	20	96	3	96	96	6
STR	21	0	0
SI_	21	0	0	96	48	4
TAP	21	96	0
STR	21	192	0
SI_	21	192	0	96	48	4
TAP	21	288	0
HLD	22	0	2	96
HLD	22	0	6	96
HLD	22	192	1	96
HLD	22	192	5	96
TAP	23	0	2
TAP	23	0	4
TAP	23	96	3
TAP	23	96	5
TAP	23	192	2
TAP	23	192	4
TAP	23	288	3
TAP	23	288	5
HLD	24	0	0	96
HLD	24	192	0	96
STR	25	0	0
SI_	25	0	0	96	48	5
STR	25	192	0
SI_	25	192	0	96	48	5
HLD	26	0	2	96
HLD	26	0	7	96
HLD	26	192	0	96
HLD	26	192	5	96
TAP	27	0	4
TAP	27	0	6
TAP	27	96	3
TAP	27	96	5
TAP	27	192	2
TAP	27	192	4
STR	27	288	6
SCL	27	288	6	96	96	3
STR	28	96	1
SCR	28	96	1	96	96	4
STR	28	288	6
SCR	28	288	6	96	192	1
BRK	29	288	1
BRK	29	288	6
TAP	30	0	6
HLD	30	0	7	96
TAP	30	96	5
HLD	30	192	0	96
TAP	30	192	1
TAP	30	288	2
STR	31	0	6
SCR	31	0	6	96	96	1
TAP	31	0	7
TAP	32	0	2
HLD	32	0	3	96
TAP	32	96	1
HLD	32	192	4	96
TAP	32	192	5
TAP	32	288	6
TAP	33	0	2
HLD	33	0	3	96
TAP	33	96	1
HLD	33	192	4	96
TAP	33	192	5
TAP	33	288	6
TAP	34	0	0
TAP	34	0	1
TAP	34	96	1
TAP	34	192	6
TAP	34	192	7
TAP	34	288	6
TAP	35	0	4
TAP	35	0	5
TAP	35	96	5
TAP	35	192	2
TAP	35	192	3
TAP	35	288	2
HLD	36	0	1	96
HLD	36	96	2	96
STR	36	192	3
SCR	36	192	3	96	96	6
TAP	38	0	0
TAP	38	0	1
TAP	38	96	0
TAP	38	96	1
TAP	38	192	6
TAP	38	192	7
TAP	38	288	6
TAP	38	288	7
TAP	39	0	0
TAP	39	0	1
TAP	39	96	0
TAP	39	96	1
TAP	39	192	6
TAP	39	192	7
TAP	39	288	6
TAP	39	288	7
TAP	40	0	0
TAP	40	0	1
TAP	40	96	7
TAP	40	192	5
TAP	40	192	6
STR	40	288	4
SI_	40	288	4	96	96	1
TAP	41	288	1
HLD	42	0	0	288
TAP	42	96	7
TAP	42	192	6
TAP	42	288	5
HLD	43	0	7	288
TAP	43	96	0
TAP	43	192	1
TAP	43	288	2
HLD	44	0	3	96
HLD	44	96	2	96
HLD	44	192	1	96
TAP	44	288	0
STR	45	0	6
SI_	45	0	6	96	96	3
STR	45	0	7
SI_	45	0	7	96	96	2
STR	46	0	0
SI_	46	0	0	96	48	5
STR	46	192	0
SI_	46	192	0	96	48	5
STR	47	0	0
SI_	47	0	0	96	48	4
TAP	47	96	0
STR	47	192	0
SI_	47	192	0	96	48	4
TAP	47	288	0
HLD	48	0	2	96
HLD	48	192	2	96
TAP	49	0	0
TAP	49	0	1
TAP	49	96	6
TAP	49	144	7
HLD	49	192	6	96
TAP	49	288	7
STR	50	0	0
SI_	50	0	0	96	48	5
STR	50	192	0
SI_	50	192	0	96	48	5
STR	51	0	0
SI_	51	0	0	96	48	4
TAP	51	96	0
STR	51	192	0
SI_	51	192	0	96	48	4
TAP	51	288	0
HLD	52	0	5	96
HLD	52	96	6	96
HLD	52	192	7	96
TAP	52	288	0
TAP	53	0	0
TAP	53	0	7
TAP	53	72	1
TAP	53	72	6
TAP	53	144	2
TAP	53	144	5
TAP	53	192	3
TAP	53	192	4
BRK	53	288	1
BRK	53	288	6
HLD	54	0	0	192
TAP	54	96	7
HLD	54	192	6	96
STR	54	288	5
SCL	54	288	5	96	96	2
TAP	55	192	0
TAP	55	192	1
TAP	55	288	6
TAP	55	288	7
TAP	56	0	5
TAP	56	96	0
TAP	56	96	1
TAP	56	192	2
TAP	56	288	6
TAP	56	288	7
STR	57	0	0
SI_	57	0	0	96	48	5
TAP	57	96	0
STR	57	192	0
SI_	57	192	0	96	48	5
TAP	57	288	0
HLD	58	0	7	192
TAP	58	96	0
HLD	58	192	1	96
STR	58	288	2
SCR	58	288	2	96	96	5
TAP	59	192	6
TAP	59	192	7
STR	59	288	0
SI_	59	288	0	96	96	4
STR	60	96	7
SI_	60	96	7	96	96	3
STR	61	0	0
SI_	61	0	0	96	48	4
TAP	61	96	0
STR	61	192	0
SI_	61	192	0	96	48	4
TAP	61	288	0
HLD	62	0	2	96
HLD	62	0	6	96
HLD	62	192	0	96
HLD	62	192	4	96
TAP	63	0	2
TAP	63	0	6
TAP	63	96	1
TAP	63	96	5
TAP	63	192	2
TAP	63	192	6
HLD	63	288	7	96
TAP	64	0	6
TAP	64	96	0
TAP	64	96	1
TAP	64	192	2
TAP	64	288	3
TAP	64	288	5
STR	65	0	0
SI_	65	0	0	96	48	5
TAP	65	96	0
STR	65	192	0
SI_	65	192	0	96	48	5
TAP	65	288	0
HLD	66	0	6	288
TAP	66	96	5
TAP	66	192	4
TAP	66	288	3
STR	67	0	2
SCR	67	0	2	96	96	5
TAP	67	288	6
TAP	67	288	7
TAP	68	0	5
TAP	68	96	0
TAP	68	96	1
TAP	68	192	2
TAP	68	288	6
TAP	68	288	7
HLD	69	0	0	96
BRK	69	192	0
TAP	70	0	6
HLD	70	0	7	96
TAP	70	96	5
HLD	70	192	0	96
TAP	70	192	1
TAP	70	288	2
STR	71	0	2
SCL	71	0	2	96	96	7
STR	71	0	7
SCL	71	0	7	96	96	4
TAP	71	288	6
TAP	71	336	7
TAP	72	0	6
TAP	72	96	1
TAP	72	144	0
TAP	72	192	1
TAP	72	288	0
TAP	72	288	7
STR	73	0	0
SI_	73	0	0	96	48	5
BRK	73	96	0
STR	73	192	0
SI_	73	192	0	96	48	5
BRK	73	288	0
HLD	74	0	6	96
TAP	74	96	5
HLD	74	192	1	96
TAP	74	288	2
STR	75	0	0
SCR	75	0	0	96	96	3
STR	75	0	5
SCR	75	0	5	96	96	0
TAP	75	288	2
TAP	75	336	3
TAP	76	0	2
TAP	76	96	5
TAP	76	144	4
TAP	76	192	5
TAP	76	288	1
TAP	76	288	6
STR	77	0	0
SI_	77	0	0	96	48	4
BRK	77	96	0
STR	77	192	0
SI_	77	192	0	96	48	4
BRK	77	288	0
TAP	78	0	6
TAP	78	0	7
TAP	78	96	6
TAP	78	192	0
TAP	78	192	1
TAP	78	288	1
TAP	79	0	2
TAP	79	0	3
TAP	79	96	3
TAP	79	96	4
TAP	79	192	4
TAP	79	192	5
STR	79	288	1
SCR	79	288	1	96	96	4
STR	80	96	6
SCL	80	96	6	96	96	3
STR	81	0	0
SI_	81	0	0	96	48	5
BRK	81	96	0
STR	81	192	0
SI_	81	192	0	96	48	5
BRK	81	288	0
HLD	82	0	6	96
HLD	82	96	5	96
HLD	82	192	4	96
HLD	82	288	3	96
STR	83	0	2
SCR	83	0	2	96	96	5
STR	83	288	6
SCR	83	288	6	96	192	1
STR	84	288	2
SCR	84	288	2	96	192	5
HLD	86	0	0	672
TAP	86	0	7
TAP	86	96	7
TAP	86	192	6
TAP	86	288	6
TAP	87	0	5
TAP	87	96	5
TAP	87	192	4
TAP	87	288	4
TAP	88	0	2
HLD	88	0	3	672
TAP	88	96	2
TAP	88	192	1
TAP	88	288	1
TAP	89	0	0
TAP	89	96	0
TAP	89	192	7
TAP	89	288	7
HLD	90	0	0	288
HLD	90	0	7	288
TAP	91	0	0
TAP	91	24	7
TAP	91	48	0
TAP	91	72	7
TAP	91	96	0
TAP	91	120	7
TAP	91	144	0
TAP	91	168	7
TAP	91	192	0
BRK	92	0	1
BRK	92	0	6

T_REC_TAP	216
T_REC_BRK	15
T_REC_XTP	0
T_REC_HLD	61
T_REC_XHO	0
T_REC_STR	60
T_REC_BST	0
T_REC_XST	0
T_REC_TTP	0
T_REC_THO	0
T_REC_SLD	60
T_REC_ALL	412
T_NUM_TAP	276
T_NUM_BRK	15
T_NUM_HLD	61
T_NUM_SLD	60
T_NUM_ALL	412
T_JUDGE_TAP	291
T_JUDGE_HLD	176
T_JUDGE_SLD	60
T_JUDGE_ALL	527
TTM_EACHPAIRS	75
TTM_SCR_TAP	138000
TTM_SCR_BRK	39000
TTM_SCR_HLD	61000
TTM_SCR_SLD	90000
TTM_SCR_ALL	328000
TTM_SCR_S	316750
TTM_SCR_SS	326500
TTM_RAT_ACV	10045

