VERSION	0.00.00	1.03.00
FES_MODE	0
BPM_DEF	183.000	183.000	183.000	183.000
MET_DEF	4	4
RESOLUTION	384
CLK_DEF	384
COMPATIBLE_CODE	MA2

BPM	0	0	183.000
MET	0	0	4	4

TAP	2	0	6
TAP	3	0	7
TAP	4	0	0
TAP	4	192	1
TAP	5	0	0
TAP	5	96	1
TAP	5	192	2
HLD	6	0	1	96
HLD	6	192	0	96
HLD	8	0	1	96
HLD	8	192	0	96
HLD	10	0	0	96
HLD	10	192	1	96
HLD	11	0	0	96
HLD	11	192	1	96
HLD	12	0	0	96
HLD	12	192	2	96
STR	13	0	4
SI_	13	0	4	96	120	1
TAP	14	0	6
TAP	14	192	7
TAP	15	0	1
TAP	15	192	0
TAP	16	0	0
TAP	16	96	1
TAP	16	192	2
TAP	16	288	3
STR	17	0	1
SI_	17	0	1	96	120	5
TAP	18	0	1
TAP	18	192	0
TAP	19	0	6
TAP	19	192	7
TAP	20	0	7
TAP	20	96	6
TAP	20	192	5
TAP	20	288	4
STR	21	0	4
SI_	21	0	4	96	120	0
TAP	22	0	7
TAP	22	192	6
TAP	23	0	0
TAP	23	192	1
TAP	24	0	0
TAP	24	96	1
TAP	24	192	2
TAP	24	288	3
STR	25	0	1
SI_	25	0	1	96	120	5
TAP	26	0	0
TAP	26	192	1
TAP	27	0	7
TAP	27	192	6
TAP	28	0	7
TAP	28	96	6
TAP	28	192	5
TAP	28	288	4
STR	29	0	4
SI_	29	0	4	96	120	0
TAP	30	96	6
TAP	30	288	4
TAP	31	96	3
TAP	31	288	1
TAP	32	96	0
TAP	32	288	7
TAP	33	96	5
TAP	33	192	4
TAP	33	288	3
TAP	34	96	1
TAP	34	288	3
TAP	35	96	4
TAP	35	288	6
TAP	36	96	7
TAP	36	288	0
TAP	37	96	1
TAP	37	192	2
TAP	37	288	3
TAP	38	96	5
TAP	38	288	7
TAP	39	96	0
TAP	39	288	2
TAP	40	96	3
TAP	40	288	4
TAP	41	96	5
TAP	41	192	6
TAP	41	288	7
TAP	42	96	2
TAP	42	288	0
TAP	43	96	7
TAP	43	288	5
TAP	44	96	4
TAP	44	288	3
STR	45	0	4
SI_	45	0	4	96	120	7
TAP	46	0	6
TAP	46	0	7
TAP	46	192	6
TAP	46	192	7
TAP	47	0	0
TAP	47	96	1
TAP	47	192	2
TAP	48	0	0
TAP	48	192	1
TAP	49	0	1
TAP	49	96	0
TAP	49	192	7
TAP	50	0	0
TAP	50	0	1
TAP	50	192	0
TAP	50	192	1
TAP	51	0	7
TAP	51	96	6
TAP	51	192	5
HLD	52	0	5	96
HLD	52	192	7	96
STR	53	0	0
SCR	53	0	0	96	120	3
TAP	54	0	6
TAP	54	0	7
TAP	54	192	2
TAP	54	192	3
TAP	55	0	4
TAP	55	0	5
TAP	55	192	0
TAP	55	192	1
TAP	56	0	2
TAP	56	96	3
TAP	56	192	4
TAP	56	288	5
TAP	57	0	6
TAP	57	0	7
TAP	57	192	6
TAP	57	192	7
TAP	58	0	0
TAP	58	0	1
TAP	58	192	4
TAP	58	192	5
TAP	59	0	2
TAP	59	0	3
TAP	59	192	6
TAP	59	192	7
TAP	60	0	5
TAP	60	96	4
TAP	60	192	3
TAP	60	288	2
STR	61	0	0
SI_	61	0	0	96	120	4
TAP	62	0	4
TAP	62	0	5
TAP	62	192	0
TAP	62	192	1
TAP	63	0	6
TAP	63	0	7
TAP	63	192	2
TAP	63	192	3
TAP	64	0	0
TAP	64	96	1
TAP	64	192	2
TAP	64	288	3
STR	65	0	1
SI_	65	0	1	96	120	5
TAP	66	0	2
TAP	66	0	3
TAP	66	192	6
TAP	66	192	7
TAP	67	0	4
TAP	67	0	5
TAP	67	192	0
TAP	67	192	1
TAP	68	0	2
TAP	68	96	3
TAP	68	192	4
TAP	68	288	5
STR	69	0	7
SI_	69	0	7	96	120	3
TAP	70	0	0
TAP	70	0	1
TAP	70	192	4
TAP	70	192	5
TAP	71	0	3
TAP	71	96	2
TAP	71	192	1
TAP	72	0	1
TAP	72	96	0
TAP	72	192	7
TAP	72	288	6
STR	73	0	1
SI_	73	0	1	96	120	5
TAP	74	0	6
TAP	74	0	7
TAP	74	192	2
TAP	74	192	3
TAP	75	0	4
TAP	75	96	5
TAP	75	192	6
TAP	76	0	7
TAP	76	96	6
TAP	76	192	0
TAP	76	288	1
HLD	77	0	0	96
HLD	77	0	1	96
HLD	77	192	6	96
HLD	77	192	7	96
TAP	78	0	0
TAP	78	0	1
TAP	78	192	6
TAP	78	192	7
TAP	79	0	7
TAP	79	96	0
TAP	79	192	1
TAP	80	0	2
TAP	80	96	3
TAP	80	192	4
TAP	80	288	5
STR	81	0	1
SI_	81	0	1	96	120	5
TAP	82	0	6
TAP	82	0	7
TAP	82	192	0
TAP	82	192	1
TAP	83	0	0
TAP	83	96	7
TAP	83	192	6
HLD	84	0	0	192
HLD	84	0	1	192
HLD	85	0	4	192
HLD	85	0	5	192
STR	86	0	1
SI_	86	0	1	96	120	6
STR	87	0	5
SI_	87	0	5	96	120	2
STR	88	0	1
SI_	88	0	1	96	120	5
STR	89	0	6
SI_	89	0	6	96	120	2
STR	90	0	3
SI_	90	0	3	96	120	7
STR	91	0	4
SI_	91	0	4	96	120	0
BRK	92	0	0
BRK	92	0	7

T_REC_TAP	183
T_REC_BRK	2
T_REC_XTP	0
T_REC_HLD	20
T_REC_XHO	0
T_REC_STR	18
T_REC_BST	0
T_REC_XST	0
T_REC_TTP	0
T_REC_THO	0
T_REC_SLD	18
T_REC_ALL	241
T_NUM_TAP	201
T_NUM_BRK	2
T_NUM_HLD	20
T_NUM_SLD	18
T_NUM_ALL	241
T_JUDGE_TAP	203
T_JUDGE_HLD	48
T_JUDGE_SLD	18
T_JUDGE_ALL	269
TTM_EACHPAIRS	35
TTM_SCR_TAP	100500
TTM_SCR_BRK	5200
TTM_SCR_HLD	20000
TTM_SCR_SLD	27000
TTM_SCR_ALL	152700
TTM_SCR_S	147950
TTM_SCR_SS	152500
TTM_RAT_ACV	10013

