VERSION	0.00.00	1.03.00
FES_MODE	0
BPM_DEF	183.000	183.000	183.000	183.000
MET_DEF	4	4
RESOLUTION	384
CLK_DEF	384
COMPATIBLE_CODE	MA2

BPM	0	0	183.000
MET	0	0	4	4

TAP	7	0	2
TAP	7	96	3
TAP	7	192	2
TAP	7	288	3
TAP	9	0	1
TAP	9	96	2
TAP	9	192	1
TAP	9	288	2
TAP	11	0	1
TAP	11	96	2
TAP	11	192	1
TAP	11	288	2
TAP	12	0	1
TAP	12	96	2
TAP	12	192	1
TAP	12	288	2
HLD	13	0	1	96
BRK	13	192	1
BRK	13	192	6
TAP	14	0	6
TAP	14	0	7
TAP	14	192	0
TAP	14	192	1
TAP	15	0	6
TAP	15	0	7
TAP	15	192	0
TAP	15	192	1
TAP	16	0	6
TAP	16	96	6
TAP	16	192	7
TAP	17	0	1
TAP	17	96	2
TAP	17	192	1
TAP	17	288	2
TAP	18	0	1
TAP	18	192	0
TAP	19	0	7
TAP	19	192	6
TAP	20	0	7
TAP	20	96	7
TAP	20	192	0
HLD	21	0	1	192
HLD	21	0	6	192
TAP	22	0	2
TAP	22	96	2
TAP	22	192	3
TAP	23	0	5
TAP	23	96	5
TAP	23	192	4
TAP	24	0	3
TAP	24	0	4
TAP	24	192	3
TAP	24	192	4
TAP	25	0	1
TAP	25	96	2
TAP	25	192	1
TAP	25	288	2
HLD	26	0	1	192
HLD	27	0	6	192
TAP	28	0	1
TAP	28	192	6
BRK	29	0	0
BRK	29	0	7
TAP	30	96	6
TAP	30	288	6
TAP	31	96	5
TAP	31	288	5
TAP	32	96	1
TAP	32	288	1
TAP	33	96	2
TAP	33	288	2
TAP	34	96	4
TAP	34	288	4
TAP	35	96	5
TAP	35	288	5
TAP	36	96	3
STR	36	288	3
SI_	36	288	3	96	192	0
TAP	38	96	7
TAP	38	288	6
TAP	39	96	0
TAP	39	288	1
TAP	40	96	2
TAP	40	288	3
TAP	41	96	5
TAP	41	288	4
TAP	42	96	4
TAP	42	96	5
TAP	42	288	4
TAP	42	288	5
TAP	43	96	2
TAP	43	96	3
TAP	43	288	2
TAP	43	288	3
TAP	44	96	1
STR	44	288	0
SI_	44	288	0	96	192	4
TAP	46	0	1
TAP	46	96	2
TAP	46	192	1
TAP	46	288	2
TAP	47	0	1
TAP	47	96	2
HLD	47	192	1	96
TAP	48	0	7
TAP	48	192	7
HLD	49	0	7	96
TAP	49	192	7
TAP	50	0	1
TAP	50	96	2
TAP	50	192	1
TAP	50	288	2
TAP	51	0	1
TAP	51	96	2
HLD	51	192	1	96
TAP	52	0	7
TAP	52	96	7
TAP	52	192	0
HLD	53	0	1	192
HLD	53	0	6	192
TAP	54	0	6
TAP	54	0	7
TAP	54	192	0
TAP	54	192	1
TAP	55	0	6
TAP	55	0	7
TAP	55	192	6
TAP	55	192	7
HLD	56	0	0	96
TAP	56	192	0
TAP	57	0	1
TAP	57	96	2
TAP	57	192	1
TAP	57	288	2
HLD	58	0	1	192
HLD	59	0	6	192
TAP	60	0	0
TAP	60	0	7
TAP	60	192	0
TAP	60	192	7
TAP	61	0	1
TAP	61	96	2
HLD	61	192	1	96
TAP	62	0	0
TAP	62	0	1
TAP	62	192	6
TAP	62	192	7
TAP	63	0	0
TAP	63	0	1
TAP	63	96	0
TAP	63	96	1
TAP	63	192	0
TAP	63	192	1
HLD	64	0	0	96
TAP	64	192	0
TAP	65	0	1
TAP	65	96	2
TAP	65	192	1
TAP	65	288	2
TAP	66	0	1
TAP	66	192	2
TAP	66	192	3
TAP	67	0	6
TAP	67	192	4
TAP	67	192	5
TAP	68	0	6
TAP	68	96	6
TAP	68	192	7
STR	69	0	0
SI_	69	0	0	96	192	3
STR	69	0	7
SI_	69	0	7	96	192	4
TAP	70	0	2
TAP	70	192	2
TAP	71	0	5
TAP	71	192	5
TAP	72	0	7
TAP	72	96	7
TAP	72	192	7
TAP	73	0	1
TAP	73	96	2
TAP	73	192	1
TAP	73	288	2
TAP	74	0	1
TAP	74	192	1
TAP	75	0	6
TAP	75	192	6
TAP	76	0	0
TAP	76	96	0
TAP	76	192	0
TAP	77	0	1
TAP	77	96	3
HLD	77	192	1	96
HLD	78	0	6	192
HLD	79	0	4	192
HLD	80	0	2	96
TAP	80	192	2
TAP	81	0	1
TAP	81	96	2
TAP	81	192	1
TAP	81	288	2
STR	82	0	2
SI_	82	0	2	96	192	5
STR	83	0	6
SI_	83	0	6	96	192	1
HLD	84	0	2	192
HLD	85	0	3	192
HLD	86	0	7	192
HLD	87	0	6	192
HLD	88	0	5	192
HLD	89	0	4	192
STR	90	0	3
SI_	90	0	3	96	192	0
TAP	91	0	7
TAP	91	96	7
TAP	91	192	7
BRK	92	0	0
BRK	92	0	7

T_REC_TAP	173
T_REC_BRK	6
T_REC_XTP	0
T_REC_HLD	25
T_REC_XHO	0
T_REC_STR	7
T_REC_BST	0
T_REC_XST	0
T_REC_TTP	0
T_REC_THO	0
T_REC_SLD	7
T_REC_ALL	218
T_NUM_TAP	180
T_NUM_BRK	6
T_NUM_HLD	25
T_NUM_SLD	7
T_NUM_ALL	218
T_JUDGE_TAP	186
T_JUDGE_HLD	82
T_JUDGE_SLD	7
T_JUDGE_ALL	275
TTM_EACHPAIRS	29
TTM_SCR_TAP	90000
TTM_SCR_BRK	15600
TTM_SCR_HLD	25000
TTM_SCR_SLD	10500
TTM_SCR_ALL	141100
TTM_SCR_S	136300
TTM_SCR_SS	140500
TTM_RAT_ACV	10042

