VERSION	0.00.00	1.03.00
FES_MODE	0
BPM_DEF	160.000	160.000	160.000	160.000
MET_DEF	4	4
RESOLUTION	384
CLK_DEF	384
COMPATIBLE_CODE	MA2

BPM	0	0	160.000
MET	0	0	4	4

STR	2	0	0
SI_	2	0	0	96	24	4
TAP	2	0	2
TAP	2	48	1
STR	2	96	2
SI_	2	96	2	96	24	6
TAP	2	192	4
STR	2	240	1
SI_	2	240	1	96	24	5
STR	2	336	7
SI_	2	336	7	96	24	2
TAP	3	48	0
STR	3	96	1
SI_	3	96	1	96	24	4
TAP	3	192	3
HLD	3	240	5	144
STR	4	0	6
SI_	4	0	6	96	24	2
TAP	4	48	7
STR	4	96	0
SI_	4	96	0	96	24	4
TAP	4	192	6
TAP	4	240	2
TAP	4	336	4
TAP	4	336	5
TAP	5	0	1
TAP	5	0	2
TAP	5	72	5
TAP	5	72	7
TAP	5	144	0
TAP	5	144	2
BRK	5	192	6
BRK	5	192	7
TAP	6	0	2
TAP	6	24	3
TAP	6	48	2
TAP	6	72	3
TAP	6	96	2
TAP	6	120	4
TAP	6	144	2
TAP	6	168	4
TAP	6	192	2
TAP	6	216	5
TAP	6	240	2
TAP	6	264	5
HLD	6	288	2	144
TAP	6	360	3
BRK	7	48	5
TAP	7	96	5
TAP	7	120	4
TAP	7	144	5
TAP	7	168	4
TAP	7	192	5
TAP	7	216	3
TAP	7	240	5
TAP	7	264	3
TAP	7	288	5
TAP	7	312	2
TAP	7	336	5
TAP	7	360	2
HLD	8	0	5	144
TAP	8	72	4
BRK	8	144	2
TAP	8	192	2
TAP	8	216	3
TAP	8	240	2
TAP	8	264	4
TAP	8	288	2
TAP	8	312	5
TAP	8	336	2
TAP	8	360	6
TAP	9	0	2
TAP	9	24	7
TAP	9	48	2
TAP	9	72	0
HLD	9	96	2	144
TAP	9	168	0
BRK	9	240	6
TAP	9	288	6
TAP	9	312	7
TAP	9	336	6
TAP	9	360	0
TAP	10	0	6
TAP	10	24	1
TAP	10	48	6
TAP	10	72	2
TAP	10	96	6
TAP	10	120	3
TAP	10	144	6
TAP	10	168	4
HLD	10	192	6	144
BRK	10	336	2
TAP	11	0	1
TAP	11	48	0
HLD	11	96	7	144
TAP	11	192	5
HLD	11	240	0	288
TAP	11	336	2
TAP	12	0	3
TAP	12	48	4
TAP	12	96	3
HLD	12	144	4	192
TAP	12	240	6
TAP	12	288	7
TAP	12	336	0
STR	13	0	0
SI_	13	0	0	96	48	4
TAP	13	48	0
TAP	13	96	3
TAP	13	192	2
TAP	13	240	1
STR	13	288	0
SCL	13	288	0	96	96	5
TAP	13	336	0
STR	14	0	5
SCL	14	0	5	96	96	2
STR	14	96	2
SCL	14	96	2	96	96	7
STR	14	192	7
SCL	14	192	7	96	96	4
STR	14	288	4
SI_	14	288	4	96	96	0
TAP	15	0	0
TAP	15	48	1
TAP	15	96	2
TAP	15	192	5
TAP	15	240	4
TAP	15	336	7
TAP	16	0	6
TAP	16	48	5
TAP	16	96	4
TAP	16	144	3
TAP	16	240	7
TAP	16	288	0
TAP	16	336	1
TAP	17	0	0
TAP	17	24	1
TAP	17	48	0
TAP	17	72	1
TAP	17	96	6
TAP	17	120	7
TAP	17	144	6
TAP	17	168	7
TAP	17	192	5
TAP	17	216	4
TAP	17	240	5
TAP	17	264	4
TAP	17	288	6
TAP	17	312	7
TAP	17	336	6
TAP	18	48	0
TAP	18	48	4
TAP	18	96	0
TAP	18	96	4
TAP	18	240	1
TAP	18	240	5
TAP	18	288	2
TAP	18	288	6
BRK	18	336	3
BRK	18	336	7
TAP	19	48	3
TAP	19	96	2
TAP	19	144	1
STR	19	192	1
SCL	19	192	1	96	24	6
STR	19	240	5
SCR	19	240	5	96	24	0
TAP	20	48	4
TAP	20	96	5
TAP	20	144	6
STR	20	192	6
SCR	20	192	6	96	24	1
STR	20	240	2
SCL	20	240	2	96	24	7
TAP	21	48	4
TAP	21	96	6
TAP	21	144	0
TAP	21	192	2
TAP	21	240	4
TAP	21	288	6
STR	21	336	0
SI_	21	336	0	96	24	5
TAP	22	0	0
STR	22	48	7
SI_	22	48	7	96	24	2
TAP	22	96	7
STR	22	144	1
SI_	22	144	1	96	24	5
TAP	22	192	1
STR	22	240	3
SI_	22	240	3	96	24	7
BRK	22	288	3
TAP	23	48	4
TAP	23	96	5
TAP	23	144	6
STR	23	192	7
SCR	23	192	7	96	24	2
STR	23	240	3
SI_	23	240	3	96	24	7
TAP	24	48	5
TAP	24	96	4
TAP	24	144	3
STR	24	192	2
SCL	24	192	2	96	24	7
STR	24	240	6
SI_	24	240	6	96	24	2
TAP	25	48	3
TAP	25	96	4
TAP	25	144	5
TAP	25	192	4
TAP	25	192	6
TAP	25	240	5
TAP	25	288	6
STR	25	336	0
SI_	25	336	0	96	24	4
STR	26	48	1
SI_	26	48	1	96	24	5
STR	26	144	2
SI_	26	144	2	96	24	6
TAP	27	0	0
TAP	27	0	4
TAP	27	72	2
TAP	27	72	6
TAP	27	144	0
TAP	27	144	1
TAP	27	192	3
TAP	27	192	7
TAP	27	264	1
TAP	27	264	5
TAP	27	336	2
TAP	27	336	3
TAP	28	0	4
TAP	28	0	5
TAP	28	72	6
TAP	28	72	7
TAP	28	144	0
TAP	28	144	1
STR	28	192	0
SI_	28	192	0	96	24	5
STR	28	192	6
SI_	28	192	6	96	24	2
TAP	29	0	0
TAP	29	0	5
TAP	29	72	2
TAP	29	72	6
TAP	29	144	5
TAP	29	144	7
TAP	29	192	1
TAP	29	192	4
TAP	29	264	2
TAP	29	264	7
TAP	29	336	0
TAP	29	336	2
TAP	30	0	2
TAP	30	0	5
TAP	30	72	3
TAP	30	72	7
TAP	30	144	0
TAP	30	144	2
STR	30	192	2
SI_	30	192	2	96	25	7
TAP	30	240	2
HLD	31	0	1	72
HLD	31	72	2	72
TAP	31	144	3
TAP	31	192	0
TAP	31	240	7
TAP	31	288	6
TAP	31	336	5
HLD	32	0	6	72
HLD	32	72	5	72
TAP	32	144	4
TAP	32	192	7
TAP	32	240	0
TAP	32	288	1
HLD	33	0	4	72
HLD	33	72	6	72
HLD	33	144	0	48
HLD	33	192	1	72
HLD	33	264	7	72
TAP	33	336	5
TAP	34	0	2
TAP	34	0	6
TAP	34	96	0
TAP	34	96	4
STR	34	192	1
SI_	34	192	1	96	24	5
STR	34	192	7
SI_	34	192	7	96	48	3
TAP	35	0	0
TAP	35	48	4
TAP	35	96	2
STR	35	144	7
SI_	35	144	7	96	24	3
BRK	35	240	7
TAP	35	336	5
TAP	36	48	5
TAP	36	96	4
TAP	36	144	3
STR	36	192	2
SI_	36	192	2	96	24	7
BRK	36	288	2
TAP	37	0	7
TAP	37	48	5
TAP	37	96	3
TAP	37	144	5
TAP	37	192	7
TAP	37	240	0
TAP	37	264	7
STR	37	288	0
SI_	37	288	0	96	24	5
TAP	37	336	0
STR	38	0	7
SI_	38	0	7	96	24	2
STR	38	96	1
SI_	38	96	1	96	24	4
STR	38	192	6
SI_	38	192	6	96	24	3
STR	38	288	5
SI_	38	288	5	96	24	0
TAP	39	0	6
TAP	39	48	7
TAP	39	96	0
STR	39	144	1
SI_	39	144	1	96	24	5
BRK	39	240	1
HLD	39	336	2	96
TAP	40	48	5
TAP	40	96	4
TAP	40	144	3
STR	40	192	2
SI_	40	192	2	96	24	7
BRK	40	288	2
TAP	41	0	0
TAP	41	48	1
TAP	41	96	0
TAP	41	144	7
TAP	41	192	6
TAP	41	240	2
TAP	41	264	1
TAP	41	288	0
TAP	41	336	7
BRK	42	0	7
STR	42	96	0
SI_	42	96	0	96	48	4
STR	42	192	4
SI_	42	192	4	96	48	0
TAP	43	0	7
TAP	43	48	3
TAP	43	96	5
STR	43	144	0
SI_	43	144	0	96	24	4
BRK	43	240	0
TAP	43	336	2
TAP	44	48	2
TAP	44	96	3
TAP	44	144	4
STR	44	192	5
SI_	44	192	5	96	24	0
BRK	44	288	5
TAP	45	0	0
TAP	45	48	2
TAP	45	96	4
TAP	45	144	2
TAP	45	192	0
TAP	45	240	7
TAP	45	264	0
STR	45	288	7
SI_	45	288	7	96	24	2
TAP	45	336	7
STR	46	0	0
SI_	46	0	0	96	24	5
STR	46	96	6
SI_	46	96	6	96	24	3
STR	46	192	1
SI_	46	192	1	96	24	4
STR	46	288	2
SI_	46	288	2	96	24	7
TAP	47	0	1
TAP	47	48	0
TAP	47	96	7
STR	47	144	6
SI_	47	144	6	96	24	2
BRK	47	240	6
HLD	47	336	5	96
TAP	48	48	2
TAP	48	96	3
TAP	48	144	4
STR	48	192	5
SI_	48	192	5	96	24	0
BRK	48	288	5
TAP	49	0	7
TAP	49	48	6
TAP	49	96	7
TAP	49	144	0
TAP	49	192	1
TAP	49	240	5
TAP	49	264	6
TAP	49	288	7
TAP	49	336	0
BRK	50	0	0
STR	50	96	1
SCL	50	96	1	96	48	6
STR	50	192	5
SCR	50	192	5	96	48	0
HLD	51	0	2	96
HLD	51	96	0	144
TAP	51	240	5
TAP	51	336	7
TAP	51	360	0
HLD	52	0	1	96
TAP	52	96	3
HLD	52	144	7	96
TAP	52	240	5
TAP	52	288	3
TAP	52	336	1
TAP	53	48	6
TAP	53	72	7
TAP	53	96	6
TAP	53	192	0
STR	53	240	5
SI_	53	240	5	96	24	1
STR	53	336	7
SI_	53	336	7	96	24	3
STR	54	48	1
SI_	54	48	1	96	24	5
TAP	54	240	2
TAP	54	288	7
HLD	55	0	5	192
HLD	55	96	1	144
HLD	55	240	3	96
TAP	55	336	7
TAP	55	360	6
HLD	56	0	5	96
TAP	56	96	3
HLD	56	144	4	96
TAP	56	240	2
TAP	56	288	1
TAP	56	336	0
TAP	57	0	7
TAP	57	24	6
TAP	57	48	7
TAP	57	72	6
TAP	57	96	1
TAP	57	120	0
TAP	57	144	1
TAP	57	168	0
TAP	57	192	2
TAP	57	216	3
TAP	57	240	2
TAP	57	264	3
TAP	57	288	1
TAP	57	312	0
TAP	57	336	1
TAP	58	48	5
TAP	58	72	6
HLD	58	96	7	144
TAP	58	240	0
TAP	58	288	1
TAP	58	336	2
TAP	59	0	1
TAP	59	0	2
TAP	59	96	5
TAP	59	96	7
TAP	59	192	0
TAP	59	192	2
TAP	59	288	5
TAP	59	288	6
TAP	60	0	2
TAP	60	0	3
TAP	60	96	0
TAP	60	96	6
TAP	60	192	4
TAP	60	192	5
TAP	60	288	1
TAP	60	288	7
TAP	61	0	2
TAP	61	0	3
TAP	61	96	0
TAP	61	96	5
TAP	61	192	6
TAP	61	192	7
TAP	61	288	1
TAP	61	288	4
TAP	62	0	4
TAP	62	0	5
TAP	62	96	6
TAP	62	96	7
BRK	62	192	0
BRK	62	192	1
TAP	63	0	6
TAP	63	0	7
TAP	63	48	6
TAP	63	48	7
TAP	63	96	0
TAP	63	96	7
TAP	63	144	0
TAP	63	144	7
TAP	63	192	0
TAP	63	192	1
TAP	63	240	0
TAP	63	240	1
TAP	63	288	0
TAP	63	288	7
TAP	63	336	0
TAP	63	336	7
TAP	64	0	2
TAP	64	0	3
TAP	64	48	2
TAP	64	48	3
TAP	64	96	3
TAP	64	96	4
TAP	64	144	3
TAP	64	144	4
TAP	64	192	4
TAP	64	192	5
TAP	64	240	4
TAP	64	240	5
TAP	64	288	3
TAP	64	288	4
TAP	65	0	6
TAP	65	0	7
TAP	65	48	4
TAP	65	48	5
TAP	65	96	2
TAP	65	96	3
TAP	65	144	0
TAP	65	144	1
TAP	65	192	0
TAP	65	192	7
TAP	65	240	1
TAP	65	240	2
TAP	65	288	3
TAP	65	288	4
TAP	65	336	5
TAP	65	336	6
TAP	66	0	1
TAP	66	0	6
BRK	66	96	0
BRK	66	96	7
TAP	66	336	7
TAP	67	0	3
TAP	67	48	1
TAP	67	96	5
STR	67	144	2
SI_	67	144	2	96	24	7
STR	67	240	6
SCL	67	240	6	96	24	3
STR	67	336	1
SI_	67	336	1	96	24	5
TAP	68	48	2
TAP	68	96	0
TAP	68	144	6
STR	68	192	7
SI_	68	192	7	96	24	2
TAP	68	288	3
TAP	69	0	2
TAP	69	0	4
TAP	69	48	3
TAP	69	96	1
TAP	69	144	7
TAP	69	192	3
TAP	69	192	5
TAP	69	240	1
TAP	69	264	0
STR	69	288	7
SI_	69	288	7	96	24	3
TAP	69	336	7
STR	70	0	7
SCL	70	0	7	96	24	4
STR	70	96	7
SCR	70	96	7	96	24	2
STR	70	192	3
SI_	70	192	3	96	24	7
STR	70	288	3
SCL	70	288	3	96	24	0
TAP	71	0	7
TAP	71	48	6
TAP	71	96	5
STR	71	144	5
SI_	71	144	5	96	24	0
TAP	71	192	5
TAP	71	336	7
TAP	72	48	6
TAP	72	96	7
TAP	72	144	0
STR	72	192	1
SI_	72	192	1	96	24	4
TAP	73	0	2
TAP	73	48	3
TAP	73	96	2
TAP	73	144	3
HLD	73	192	0	96
TAP	73	240	7
TAP	73	264	6
TAP	73	288	5
TAP	73	336	1
STR	74	0	7
SI_	74	0	7	96	48	2
STR	74	96	0
SI_	74	96	0	96	48	5
STR	74	192	3
SI_	74	192	3	96	48	6
STR	74	288	4
SI_	74	288	4	96	48	1
TAP	75	0	3
TAP	75	48	5
TAP	75	96	1
STR	75	144	7
SI_	75	144	7	96	24	2
STR	75	240	0
SCL	75	240	0	96	24	5
STR	75	336	1
SI_	75	336	1	96	24	5
TAP	76	48	2
TAP	76	96	0
TAP	76	144	6
STR	76	192	0
SI_	76	192	0	96	24	4
TAP	76	288	7
TAP	77	0	4
TAP	77	0	6
TAP	77	48	5
TAP	77	96	3
TAP	77	144	1
TAP	77	192	5
TAP	77	192	7
TAP	77	240	6
TAP	77	264	7
STR	77	288	0
SI_	77	288	0	96	24	4
TAP	77	336	0
STR	78	0	0
SCR	78	0	0	96	24	3
STR	78	96	0
SCL	78	96	0	96	24	5
STR	78	192	4
SI_	78	192	4	96	24	0
STR	78	288	4
SCR	78	288	4	96	24	7
TAP	79	0	0
TAP	79	48	1
TAP	79	96	2
STR	79	144	2
SI_	79	144	2	96	24	7
TAP	79	192	2
TAP	79	336	5
TAP	80	48	3
TAP	80	96	4
TAP	80	144	5
STR	80	192	6
SI_	80	192	6	96	24	3
TAP	80	240	6
TAP	81	0	1
TAP	81	48	0
TAP	81	96	6
TAP	81	144	7
HLD	81	192	0	96
TAP	81	240	1
TAP	81	264	2
TAP	81	288	3
STR	81	336	5
SCR	81	336	5	96	144	0
HLD	83	0	5	96
HLD	83	96	7	144
TAP	83	240	2
TAP	83	336	0
TAP	83	360	7
HLD	84	0	6	96
TAP	84	96	4
HLD	84	144	0	96
TAP	84	240	2
TAP	84	288	4
TAP	84	336	6
TAP	85	48	1
TAP	85	72	0
TAP	85	96	1
TAP	85	192	7
STR	85	240	2
SI_	85	240	2	96	24	6
STR	85	336	0
SI_	85	336	0	96	24	4
STR	86	48	6
SI_	86	48	6	96	24	2
TAP	86	240	5
TAP	86	288	0
HLD	87	0	2	192
HLD	87	96	6	144
HLD	87	240	4	96
TAP	87	336	0
TAP	87	360	1
HLD	88	0	2	96
TAP	88	96	4
HLD	88	144	3	96
TAP	88	240	5
TAP	88	288	6
TAP	88	336	7
TAP	89	0	3
TAP	89	24	2
TAP	89	48	3
TAP	89	72	2
TAP	89	96	5
TAP	89	120	4
TAP	89	144	5
TAP	89	168	4
TAP	89	192	6
TAP	89	216	7
TAP	89	240	6
TAP	89	264	7
TAP	89	288	5
TAP	89	312	4
TAP	89	336	5
TAP	90	48	2
TAP	90	72	1
HLD	90	96	0	144
BRK	90	240	7
BRK	90	288	6
BRK	90	336	5

T_REC_TAP	475
T_REC_BRK	26
T_REC_XTP	0
T_REC_HLD	41
T_REC_XHO	0
T_REC_STR	88
T_REC_BST	0
T_REC_XST	0
T_REC_TTP	0
T_REC_THO	0
T_REC_SLD	88
T_REC_ALL	718
T_NUM_TAP	563
T_NUM_BRK	26
T_NUM_HLD	41
T_NUM_SLD	88
T_NUM_ALL	718
T_JUDGE_TAP	589
T_JUDGE_HLD	103
T_JUDGE_SLD	88
T_JUDGE_ALL	780
TTM_EACHPAIRS	78
TTM_SCR_TAP	281500
TTM_SCR_BRK	67600
TTM_SCR_HLD	41000
TTM_SCR_SLD	132000
TTM_SCR_ALL	522100
TTM_SCR_S	503950
TTM_SCR_SS	519500
TTM_RAT_ACV	10050

