VERSION	0.00.00	1.03.00
FES_MODE	0
BPM_DEF	160.000	160.000	160.000	160.000
MET_DEF	4	4
RESOLUTION	384
CLK_DEF	384
COMPATIBLE_CODE	MA2

BPM	0	0	160.000
MET	0	0	4	4

HLD	2	0	2	672
TAP	2	96	3
TAP	2	192	3
TAP	2	288	3
TAP	3	0	3
TAP	3	96	3
TAP	3	192	3
TAP	3	288	3
HLD	4	0	5	288
TAP	4	96	4
TAP	4	192	4
TAP	4	288	4
BRK	5	0	0
TAP	6	0	7
TAP	6	96	2
TAP	6	192	7
TAP	6	288	0
TAP	6	360	0
TAP	7	48	0
TAP	7	96	6
TAP	7	192	3
TAP	7	288	6
TAP	8	0	5
TAP	8	72	5
TAP	8	144	5
TAP	8	192	0
TAP	8	288	5
TAP	9	0	0
TAP	9	96	7
TAP	9	168	7
TAP	9	240	7
TAP	9	288	1
TAP	10	0	4
TAP	10	96	1
STR	10	192	2
SI_	10	192	2	96	96	7
TAP	11	0	0
TAP	11	96	0
TAP	11	192	3
TAP	11	288	3
TAP	12	0	6
TAP	12	96	4
TAP	12	192	1
TAP	12	288	3
TAP	13	0	7
TAP	13	96	7
TAP	13	192	4
TAP	13	288	4
TAP	14	0	7
TAP	14	96	5
TAP	14	192	3
TAP	14	288	1
TAP	15	0	7
TAP	15	96	7
TAP	15	192	4
TAP	15	288	4
TAP	16	0	1
TAP	16	96	3
TAP	16	192	6
TAP	16	288	4
TAP	17	0	0
TAP	17	96	0
TAP	17	192	3
STR	17	288	3
SI_	17	288	3	96	96	6
TAP	18	240	7
TAP	18	288	5
HLD	18	336	1	144
TAP	19	96	2
HLD	19	192	6	96
TAP	19	288	5
TAP	20	0	0
TAP	20	96	1
TAP	20	192	2
TAP	20	288	3
HLD	21	0	6	96
TAP	21	96	5
HLD	21	192	1	96
TAP	21	288	2
TAP	22	0	7
TAP	22	96	6
TAP	22	192	5
TAP	22	288	4
TAP	23	0	3
TAP	23	96	3
TAP	23	192	2
TAP	23	192	4
TAP	23	288	3
TAP	23	288	5
TAP	24	0	4
TAP	24	96	4
TAP	24	192	3
TAP	24	192	5
TAP	24	288	2
TAP	24	288	4
TAP	25	0	6
TAP	25	96	4
TAP	25	192	1
TAP	25	288	3
TAP	25	336	3
TAP	26	48	5
TAP	26	144	2
TAP	26	240	5
HLD	27	0	1	192
TAP	27	96	2
TAP	27	192	6
TAP	27	288	3
HLD	28	0	6	192
TAP	28	96	5
TAP	28	192	1
TAP	28	288	4
HLD	29	0	2	96
TAP	29	96	3
HLD	29	192	6	96
TAP	29	288	5
HLD	30	0	0	96
TAP	30	96	1
HLD	30	192	7	96
HLD	31	0	1	192
TAP	31	0	6
TAP	31	96	2
TAP	31	192	6
TAP	31	288	0
TAP	32	0	1
HLD	32	0	6	192
TAP	32	96	5
TAP	32	192	1
TAP	32	288	7
TAP	33	0	1
TAP	33	96	3
TAP	33	96	4
TAP	33	192	6
TAP	33	288	3
TAP	33	288	4
TAP	34	0	1
TAP	34	96	5
TAP	34	96	7
TAP	34	192	1
TAP	34	192	7
TAP	34	288	5
TAP	34	288	7
TAP	35	0	4
TAP	35	96	0
TAP	35	96	1
TAP	35	192	5
TAP	35	288	0
TAP	35	288	7
TAP	36	0	4
TAP	36	96	0
TAP	36	96	1
TAP	36	192	6
TAP	36	192	7
TAP	36	288	0
TAP	36	288	1
TAP	37	0	7
TAP	37	96	1
TAP	37	96	2
TAP	37	192	0
TAP	37	288	5
TAP	37	288	6
TAP	38	0	0
TAP	38	0	1
STR	38	96	6
SI_	38	96	6	96	96	3
STR	38	96	7
SI_	38	96	7	96	96	2
TAP	39	0	3
TAP	39	96	6
TAP	39	96	7
TAP	39	192	2
TAP	39	288	0
TAP	39	288	7
TAP	40	0	3
TAP	40	96	6
TAP	40	96	7
TAP	40	192	0
TAP	40	192	1
TAP	40	288	6
TAP	40	288	7
TAP	41	0	0
TAP	41	96	3
TAP	41	96	7
TAP	41	192	6
STR	41	288	0
SCR	41	288	0	96	192	3
STR	41	288	4
SCR	41	288	4	96	192	7
TAP	43	0	4
TAP	43	96	0
TAP	43	96	1
TAP	43	192	5
TAP	43	288	0
TAP	43	288	7
TAP	44	0	4
TAP	44	96	0
TAP	44	96	1
TAP	44	192	6
TAP	44	192	7
TAP	44	288	0
TAP	44	288	1
TAP	45	0	7
TAP	45	96	1
TAP	45	96	2
TAP	45	192	0
TAP	45	288	5
TAP	45	288	6
TAP	46	0	0
TAP	46	0	1
STR	46	96	6
SI_	46	96	6	96	96	3
STR	46	96	7
SI_	46	96	7	96	96	2
TAP	47	0	3
TAP	47	96	6
TAP	47	96	7
TAP	47	192	2
TAP	47	288	0
TAP	47	288	7
TAP	48	0	3
TAP	48	96	6
TAP	48	96	7
TAP	48	192	0
TAP	48	192	1
TAP	48	288	6
TAP	48	288	7
TAP	49	0	0
TAP	49	96	3
TAP	49	96	7
TAP	49	192	6
STR	49	288	0
SCL	49	288	0	96	192	5
STR	49	288	4
SCL	49	288	4	96	192	1
TAP	51	0	0
TAP	51	96	0
TAP	51	192	3
TAP	51	288	3
TAP	52	0	6
TAP	52	96	4
TAP	52	192	1
TAP	52	288	3
TAP	53	0	7
TAP	53	96	7
TAP	53	192	4
TAP	53	288	4
TAP	54	0	7
TAP	54	96	5
TAP	54	192	3
TAP	54	288	1
TAP	55	0	7
TAP	55	96	7
TAP	55	192	4
TAP	55	288	4
TAP	56	0	1
TAP	56	96	3
TAP	56	192	6
TAP	56	288	4
TAP	57	0	0
TAP	57	96	0
TAP	57	192	3
STR	57	288	3
SI_	57	288	3	96	96	6
TAP	58	240	0
TAP	58	288	5
TAP	58	336	2
TAP	59	0	7
TAP	59	96	2
TAP	59	192	5
TAP	59	288	0
TAP	60	0	3
TAP	60	96	6
TAP	60	192	1
TAP	60	288	4
TAP	61	0	7
TAP	61	96	2
TAP	61	192	5
TAP	61	288	0
TAP	62	0	3
HLD	62	96	6	192
HLD	62	192	1	96
TAP	63	0	0
BRK	63	96	5
TAP	63	192	2
BRK	63	288	7
TAP	64	0	4
BRK	64	96	1
TAP	64	192	6
BRK	64	288	3
TAP	65	0	0
BRK	65	96	5
TAP	65	192	2
BRK	65	288	7
TAP	66	0	4
STR	66	96	0
SI_	66	96	0	96	96	3
STR	66	96	7
SI_	66	96	7	96	96	4
TAP	67	0	4
TAP	67	96	0
TAP	67	96	1
TAP	67	192	5
TAP	67	288	0
TAP	67	288	7
TAP	68	0	4
TAP	68	96	0
TAP	68	96	1
TAP	68	192	6
TAP	68	192	7
TAP	68	288	0
TAP	68	288	1
TAP	69	0	7
TAP	69	96	1
TAP	69	96	2
TAP	69	192	0
TAP	69	288	5
TAP	69	288	6
TAP	70	0	0
TAP	70	0	1
STR	70	96	6
SI_	70	96	6	96	96	3
STR	70	96	7
SI_	70	96	7	96	96	2
TAP	71	0	3
TAP	71	96	6
TAP	71	96	7
TAP	71	192	2
TAP	71	288	0
TAP	71	288	7
TAP	72	0	3
TAP	72	96	6
TAP	72	96	7
TAP	72	192	0
TAP	72	192	1
TAP	72	288	6
TAP	72	288	7
TAP	73	0	0
TAP	73	96	3
TAP	73	96	7
TAP	73	192	6
STR	73	288	0
SCR	73	288	0	96	192	3
STR	73	288	4
SCR	73	288	4	96	192	7
TAP	75	0	4
TAP	75	96	0
TAP	75	96	1
TAP	75	192	5
TAP	75	288	0
TAP	75	288	7
TAP	76	0	4
TAP	76	96	0
TAP	76	96	1
TAP	76	192	6
TAP	76	192	7
TAP	76	288	0
TAP	76	288	1
TAP	77	0	7
TAP	77	96	1
TAP	77	96	2
TAP	77	192	0
TAP	77	288	5
TAP	77	288	6
TAP	78	0	0
TAP	78	0	1
STR	78	96	6
SI_	78	96	6	96	96	3
STR	78	96	7
SI_	78	96	7	96	96	2
TAP	79	0	3
TAP	79	96	6
TAP	79	96	7
TAP	79	192	2
TAP	79	288	0
TAP	79	288	7
TAP	80	0	3
TAP	80	96	6
TAP	80	96	7
TAP	80	192	0
TAP	80	192	1
TAP	80	288	6
TAP	80	288	7
TAP	81	0	0
TAP	81	96	3
TAP	81	96	7
TAP	81	192	6
STR	81	288	0
SCL	81	288	0	96	192	5
STR	81	288	4
SCL	81	288	4	96	192	1
TAP	83	0	0
TAP	83	96	0
TAP	83	192	3
TAP	83	288	3
TAP	84	0	6
TAP	84	96	4
TAP	84	192	1
TAP	84	288	3
TAP	85	0	7
TAP	85	96	7
TAP	85	192	4
TAP	85	288	4
TAP	86	0	7
TAP	86	96	5
TAP	86	192	3
TAP	86	288	1
TAP	87	0	7
TAP	87	96	7
TAP	87	192	4
TAP	87	288	4
TAP	88	0	1
TAP	88	96	3
TAP	88	192	6
TAP	88	288	4
TAP	89	0	0
TAP	89	96	0
TAP	89	192	3
STR	89	288	3
SI_	89	288	3	96	96	6
TAP	90	240	7
TAP	90	288	5
BRK	90	336	1

T_REC_TAP	353
T_REC_BRK	8
T_REC_XTP	0
T_REC_HLD	16
T_REC_XHO	0
T_REC_STR	22
T_REC_BST	0
T_REC_XST	0
T_REC_TTP	0
T_REC_THO	0
T_REC_SLD	22
T_REC_ALL	421
T_NUM_TAP	375
T_NUM_BRK	8
T_NUM_HLD	16
T_NUM_SLD	22
T_NUM_ALL	421
T_JUDGE_TAP	383
T_JUDGE_HLD	59
T_JUDGE_SLD	22
T_JUDGE_ALL	464
TTM_EACHPAIRS	76
TTM_SCR_TAP	187500
TTM_SCR_BRK	20800
TTM_SCR_HLD	16000
TTM_SCR_SLD	33000
TTM_SCR_ALL	257300
TTM_SCR_S	248850
TTM_SCR_SS	256500
TTM_RAT_ACV	10031

