VERSION	0.00.00	1.03.00
FES_MODE	0
BPM_DEF	160.000	160.000	160.000	160.000
MET_DEF	4	4
RESOLUTION	384
CLK_DEF	384
COMPATIBLE_CODE	MA2

BPM	0	0	160.000
MET	0	0	4	4

HLD	2	0	6	576
HLD	4	0	1	384
BRK	5	0	6
STR	6	0	0
SI_	6	0	0	96	192	4
STR	7	96	7
SI_	7	96	7	96	192	3
STR	8	192	1
SI_	8	192	1	96	192	5
STR	9	288	6
SI_	9	288	6	96	192	2
TAP	11	0	0
TAP	11	96	0
TAP	11	192	2
TAP	11	288	2
TAP	12	0	7
TAP	12	96	7
TAP	12	192	5
TAP	12	288	5
TAP	13	0	0
TAP	13	96	1
TAP	13	192	2
TAP	13	288	3
TAP	14	0	7
TAP	14	96	6
TAP	14	192	5
TAP	14	288	4
TAP	15	0	1
TAP	15	96	1
TAP	15	192	3
TAP	15	288	3
TAP	16	0	6
TAP	16	96	6
TAP	16	192	4
TAP	16	288	4
TAP	17	0	0
TAP	17	96	1
TAP	17	192	2
TAP	17	288	3
TAP	18	0	4
TAP	18	96	5
TAP	18	192	6
BRK	18	288	7
HLD	19	0	0	96
TAP	19	192	1
TAP	19	288	1
HLD	20	0	7	96
TAP	20	192	6
TAP	20	288	6
HLD	21	0	1	96
TAP	21	192	2
TAP	21	288	2
TAP	22	0	3
TAP	22	96	3
HLD	22	192	3	96
HLD	23	0	7	96
TAP	23	192	6
TAP	23	288	6
HLD	24	0	0	96
TAP	24	192	1
TAP	24	288	1
HLD	25	0	6	96
TAP	25	192	5
TAP	25	288	5
TAP	26	0	4
TAP	26	96	4
HLD	26	192	4	96
HLD	27	0	5	192
HLD	27	192	4	192
HLD	28	0	3	192
TAP	28	192	2
HLD	29	0	2	192
HLD	29	192	3	192
HLD	30	0	4	192
TAP	30	192	5
HLD	31	0	7	192
HLD	31	192	6	192
HLD	32	0	5	192
TAP	32	192	4
HLD	33	0	3	192
HLD	33	192	2	192
TAP	34	0	1
TAP	34	96	1
TAP	34	192	0
BRK	34	288	0
TAP	35	0	6
TAP	35	96	6
TAP	35	96	7
TAP	35	192	6
TAP	35	288	6
TAP	35	288	7
TAP	36	0	1
TAP	36	96	0
TAP	36	96	1
TAP	36	192	1
TAP	36	288	0
TAP	36	288	1
TAP	37	0	6
TAP	37	96	6
TAP	37	96	7
TAP	37	192	6
TAP	37	288	6
TAP	37	288	7
TAP	38	0	5
TAP	38	0	6
TAP	38	96	4
TAP	38	96	5
TAP	38	192	3
TAP	38	192	4
TAP	39	0	1
TAP	39	96	0
TAP	39	96	1
TAP	39	192	1
TAP	39	288	0
TAP	39	288	1
TAP	40	0	6
TAP	40	96	6
TAP	40	96	7
TAP	40	192	6
TAP	40	288	6
TAP	40	288	7
TAP	41	0	1
TAP	41	96	0
TAP	41	96	1
TAP	41	192	1
STR	41	288	0
SI_	41	288	0	96	192	5
STR	41	288	1
SI_	41	288	1	96	192	4
TAP	43	0	2
TAP	43	96	2
TAP	43	96	3
TAP	43	192	2
TAP	43	288	2
TAP	43	288	3
TAP	44	0	5
TAP	44	96	4
TAP	44	96	5
TAP	44	192	5
TAP	44	288	4
TAP	44	288	5
TAP	45	0	2
TAP	45	96	2
TAP	45	96	3
TAP	45	192	2
TAP	45	288	2
TAP	45	288	3
TAP	46	0	3
TAP	46	0	4
TAP	46	96	4
TAP	46	96	5
TAP	46	192	5
TAP	46	192	6
TAP	47	0	5
TAP	47	96	4
TAP	47	96	5
TAP	47	192	5
TAP	47	288	4
TAP	47	288	5
TAP	48	0	2
TAP	48	96	2
TAP	48	96	3
TAP	48	192	2
TAP	48	288	2
TAP	48	288	3
TAP	49	0	5
TAP	49	96	4
TAP	49	96	5
TAP	49	192	5
STR	49	288	4
SI_	49	288	4	96	192	1
STR	49	288	5
SI_	49	288	5	96	192	0
TAP	51	0	0
TAP	51	96	0
TAP	51	192	2
TAP	51	288	2
TAP	52	0	7
TAP	52	96	7
TAP	52	192	5
TAP	52	288	5
TAP	53	0	1
TAP	53	96	1
TAP	53	192	3
TAP	53	288	3
TAP	54	0	7
TAP	54	96	6
TAP	54	192	5
TAP	54	288	4
TAP	55	0	1
TAP	55	96	1
TAP	55	192	3
TAP	55	288	3
TAP	56	0	6
TAP	56	96	6
TAP	56	192	4
TAP	56	288	4
TAP	57	0	0
TAP	57	96	1
TAP	57	192	2
TAP	57	288	3
TAP	58	0	4
TAP	58	96	5
TAP	58	192	6
BRK	58	288	7
HLD	59	0	0	192
HLD	59	192	6	192
HLD	60	0	2	192
HLD	60	192	4	192
HLD	61	0	1	192
HLD	61	192	7	192
HLD	62	0	3	192
TAP	62	192	5
TAP	63	0	7
TAP	63	96	7
TAP	63	192	1
TAP	63	288	1
TAP	64	0	5
TAP	64	96	5
TAP	64	192	3
TAP	64	288	3
TAP	65	0	6
TAP	65	96	6
TAP	65	192	0
STR	65	288	0
SI_	65	288	0	96	192	4
TAP	67	0	6
TAP	67	96	0
TAP	67	96	6
TAP	67	192	6
TAP	67	288	0
TAP	67	288	6
TAP	68	0	1
TAP	68	96	1
TAP	68	96	7
TAP	68	192	1
TAP	68	288	1
TAP	68	288	7
TAP	69	0	6
TAP	69	96	0
TAP	69	96	6
TAP	69	192	6
TAP	69	288	0
TAP	69	288	6
TAP	70	0	6
TAP	70	0	7
TAP	70	96	0
TAP	70	96	7
TAP	70	192	0
TAP	70	192	1
TAP	71	0	1
TAP	71	96	1
TAP	71	96	7
TAP	71	192	1
TAP	71	288	1
TAP	71	288	7
TAP	72	0	6
TAP	72	96	0
TAP	72	96	6
TAP	72	192	6
TAP	72	288	0
TAP	72	288	6
TAP	73	0	1
TAP	73	96	1
TAP	73	96	7
TAP	73	192	1
STR	73	288	1
SI_	73	288	1	96	192	5
TAP	73	288	7
TAP	75	0	2
TAP	75	96	2
TAP	75	96	4
TAP	75	192	2
TAP	75	288	2
TAP	75	288	4
TAP	76	0	5
TAP	76	96	3
TAP	76	96	5
TAP	76	192	5
TAP	76	288	3
TAP	76	288	5
TAP	77	0	2
TAP	77	96	2
TAP	77	96	4
TAP	77	192	2
TAP	77	288	2
TAP	77	288	4
TAP	78	0	2
TAP	78	0	3
TAP	78	96	3
TAP	78	96	4
TAP	78	192	4
TAP	78	192	5
TAP	79	0	5
TAP	79	96	3
TAP	79	96	5
TAP	79	192	5
TAP	79	288	3
TAP	79	288	5
TAP	80	0	2
TAP	80	96	2
TAP	80	96	4
TAP	80	192	2
TAP	80	288	2
TAP	80	288	4
TAP	81	0	5
TAP	81	96	3
TAP	81	96	5
TAP	81	192	5
TAP	81	288	3
STR	81	288	5
SI_	81	288	5	96	192	1
TAP	83	0	0
TAP	83	96	0
TAP	83	192	2
TAP	83	288	2
TAP	84	0	7
TAP	84	96	7
TAP	84	192	5
TAP	84	288	5
TAP	85	0	0
TAP	85	96	1
TAP	85	192	2
TAP	85	288	3
TAP	86	0	7
TAP	86	96	6
TAP	86	192	5
TAP	86	288	4
TAP	87	0	1
TAP	87	96	1
TAP	87	192	3
TAP	87	288	3
TAP	88	0	6
TAP	88	96	6
TAP	88	192	4
TAP	88	288	4
TAP	89	0	0
TAP	89	96	1
TAP	89	192	2
TAP	89	288	3
TAP	90	0	4
TAP	90	96	5
TAP	90	192	6
BRK	90	288	7

T_REC_TAP	289
T_REC_BRK	5
T_REC_XTP	0
T_REC_HLD	28
T_REC_XHO	0
T_REC_STR	11
T_REC_BST	0
T_REC_XST	0
T_REC_TTP	0
T_REC_THO	0
T_REC_SLD	11
T_REC_ALL	344
T_NUM_TAP	300
T_NUM_BRK	5
T_NUM_HLD	28
T_NUM_SLD	11
T_NUM_ALL	344
T_JUDGE_TAP	305
T_JUDGE_HLD	108
T_JUDGE_SLD	11
T_JUDGE_ALL	424
TTM_EACHPAIRS	60
TTM_SCR_TAP	150000
TTM_SCR_BRK	13000
TTM_SCR_HLD	28000
TTM_SCR_SLD	16500
TTM_SCR_ALL	207500
TTM_SCR_S	200800
TTM_SCR_SS	207000
TTM_RAT_ACV	10024

