VERSION	0.00.00	1.03.00
FES_MODE	0
BPM_DEF	160.000	160.000	160.000	160.000
MET_DEF	4	4
RESOLUTION	384
CLK_DEF	384
COMPATIBLE_CODE	MA2

BPM	0	0	160.000
MET	0	0	4	4

TAP	2	0	2
TAP	3	0	2
TAP	4	0	2
TAP	5	0	1
TAP	5	192	1
HLD	6	0	0	288
HLD	7	96	7	288
HLD	8	192	0	288
HLD	9	288	7	288
TAP	11	0	0
TAP	11	192	0
TAP	12	0	1
TAP	12	192	1
HLD	13	0	2	192
HLD	14	0	3	192
TAP	15	0	4
TAP	15	192	4
TAP	16	0	5
TAP	16	192	5
TAP	17	0	6
TAP	17	192	6
STR	18	0	7
SI_	18	0	7	96	96	4
TAP	19	0	3
TAP	19	192	3
TAP	20	0	2
TAP	20	192	2
TAP	21	0	3
TAP	21	192	3
HLD	22	0	2	192
TAP	23	0	4
TAP	23	192	4
TAP	24	0	5
TAP	24	192	5
TAP	25	0	4
TAP	25	192	4
HLD	26	0	5	192
TAP	27	0	5
TAP	27	192	4
TAP	28	0	3
TAP	28	192	2
TAP	29	0	2
TAP	29	192	3
TAP	30	0	4
TAP	30	192	5
TAP	31	0	6
TAP	31	192	7
TAP	32	0	0
TAP	32	192	1
TAP	33	0	1
TAP	33	192	0
TAP	34	0	7
TAP	34	96	7
BRK	34	192	6
TAP	35	0	7
TAP	35	192	7
TAP	36	0	6
TAP	36	192	6
TAP	37	0	5
TAP	37	192	5
TAP	38	0	4
TAP	38	96	4
TAP	38	192	4
TAP	39	0	3
TAP	39	192	3
TAP	40	0	2
TAP	40	192	2
TAP	41	0	1
TAP	41	192	1
HLD	42	0	0	192
TAP	43	0	0
TAP	43	192	0
TAP	44	0	1
TAP	44	192	1
TAP	45	0	2
TAP	45	192	2
TAP	46	0	3
TAP	46	96	3
TAP	46	192	3
TAP	47	0	4
TAP	47	192	4
TAP	48	0	5
TAP	48	192	5
TAP	49	0	6
TAP	49	192	6
HLD	50	0	7	192
TAP	51	0	7
TAP	51	192	7
TAP	52	0	6
TAP	52	192	6
TAP	53	0	5
TAP	53	192	5
STR	54	0	6
SI_	54	0	6	96	96	2
TAP	55	0	0
TAP	55	192	0
TAP	56	0	1
TAP	56	192	1
HLD	57	0	2	192
HLD	58	0	1	192
TAP	59	0	0
TAP	59	192	1
TAP	60	0	2
TAP	60	192	3
TAP	61	0	4
TAP	61	192	5
TAP	62	0	6
TAP	62	192	7
TAP	63	0	0
TAP	63	96	0
TAP	63	192	1
TAP	64	0	2
TAP	64	96	2
TAP	64	192	3
TAP	65	0	4
TAP	65	96	4
TAP	65	192	5
BRK	66	0	6
BRK	66	96	6
TAP	67	0	7
TAP	67	192	7
TAP	68	0	6
TAP	68	192	6
TAP	68	288	6
TAP	69	0	5
TAP	69	192	5
TAP	70	0	4
TAP	70	96	4
TAP	70	192	4
TAP	71	0	3
TAP	71	192	3
TAP	72	0	2
TAP	72	192	2
TAP	72	288	2
TAP	73	0	1
TAP	73	192	1
HLD	74	0	0	192
TAP	75	0	0
TAP	75	192	0
TAP	76	0	1
TAP	76	192	1
TAP	76	288	1
TAP	77	0	2
TAP	77	192	2
TAP	78	0	3
TAP	78	96	3
TAP	78	192	3
TAP	79	0	4
TAP	79	192	4
TAP	80	0	5
TAP	80	192	5
TAP	80	288	5
TAP	81	0	6
TAP	81	192	6
HLD	82	0	7	192
TAP	83	0	6
TAP	83	192	6
TAP	84	0	7
TAP	84	192	7
TAP	85	0	0
TAP	85	192	0
TAP	86	0	1
TAP	86	96	1
TAP	86	192	1
TAP	87	0	1
TAP	87	192	1
TAP	88	0	0
TAP	88	192	0
TAP	89	0	7
TAP	89	192	7
TAP	90	0	6
TAP	90	192	6
TAP	90	288	6
TAP	90	288	7

T_REC_TAP	153
T_REC_BRK	3
T_REC_XTP	0
T_REC_HLD	14
T_REC_XHO	0
T_REC_STR	2
T_REC_BST	0
T_REC_XST	0
T_REC_TTP	0
T_REC_THO	0
T_REC_SLD	2
T_REC_ALL	174
T_NUM_TAP	155
T_NUM_BRK	3
T_NUM_HLD	14
T_NUM_SLD	2
T_NUM_ALL	174
T_JUDGE_TAP	158
T_JUDGE_HLD	64
T_JUDGE_SLD	2
T_JUDGE_ALL	224
TTM_EACHPAIRS	1
TTM_SCR_TAP	77500
TTM_SCR_BRK	7800
TTM_SCR_HLD	14000
TTM_SCR_SLD	3000
TTM_SCR_ALL	102300
TTM_SCR_S	98950
TTM_SCR_SS	102000
TTM_RAT_ACV	10029

