VERSION	0.00.00	1.03.00
FES_MODE	0
BPM_DEF	170.000	170.000	170.000	170.000
MET_DEF	4	4
RESOLUTION	384
CLK_DEF	384
COMPATIBLE_CODE	MA2

BPM	0	0	170.000
MET	0	0	4	4

TAP	1	0	7
TAP	1	72	0
TAP	1	144	1
HLD	1	192	2	96
TAP	1	288	3
TAP	2	0	0
TAP	2	72	7
TAP	2	144	6
TAP	2	192	5
TAP	2	240	4
TAP	2	288	4
TAP	2	288	5
TAP	3	0	1
TAP	3	72	2
TAP	3	144	3
HLD	3	192	4	96
TAP	3	288	5
TAP	4	0	6
TAP	4	72	5
TAP	4	144	4
HLD	4	192	3	96
TAP	4	288	2
TAP	5	0	1
TAP	5	72	2
TAP	5	144	3
STR	5	192	4
SCL	5	192	4	96	48	1
TAP	6	0	6
TAP	6	72	5
TAP	6	144	4
STR	6	192	3
SCR	6	192	3	96	48	6
TAP	7	0	2
TAP	7	72	1
TAP	7	144	0
STR	7	192	7
SCR	7	192	7	96	48	2
TAP	8	0	3
TAP	8	0	4
TAP	8	96	0
TAP	8	96	1
STR	8	192	6
SI_	8	192	6	96	48	2
STR	8	192	7
SI_	8	192	7	96	48	2
TAP	9	0	7
TAP	9	48	6
TAP	9	96	5
TAP	9	144	7
TAP	9	192	6
TAP	9	240	5
TAP	9	288	7
TAP	9	336	6
TAP	10	0	5
TAP	10	48	7
TAP	10	96	6
TAP	10	144	5
STR	10	192	4
SI_	10	192	4	96	48	0
TAP	10	240	4
TAP	11	0	0
TAP	11	48	1
TAP	11	96	2
TAP	11	144	0
TAP	11	192	1
TAP	11	240	2
TAP	11	288	0
TAP	11	336	1
TAP	12	0	2
TAP	12	48	0
TAP	12	96	1
TAP	12	144	2
STR	12	192	3
SI_	12	192	3	96	48	7
TAP	12	240	3
TAP	13	0	0
TAP	13	0	4
TAP	13	48	1
TAP	13	96	2
TAP	13	144	3
TAP	13	144	7
TAP	13	192	6
TAP	13	240	5
TAP	13	288	0
TAP	13	288	4
TAP	13	336	1
TAP	14	0	2
TAP	14	48	3
TAP	14	48	7
TAP	14	96	6
TAP	14	144	5
STR	14	192	4
SCL	14	192	4	96	48	1
TAP	14	240	4
HLD	15	0	0	96
HLD	15	96	1	96
STR	15	192	2
SCR	15	192	2	96	48	5
TAP	15	240	2
HLD	16	0	0	96
TAP	16	48	7
HLD	16	96	7	96
TAP	16	144	0
BRK	16	192	0
BRK	16	240	0
BRK	16	288	0
BRK	16	336	0
TAP	17	0	6
TAP	17	48	7
TAP	17	96	7
TAP	17	144	6
TAP	17	192	5
TAP	17	240	5
TAP	17	288	6
TAP	17	336	7
TAP	18	0	7
TAP	18	48	6
TAP	18	96	5
TAP	18	144	5
STR	18	192	6
SCL	18	192	6	96	48	3
TAP	18	240	6
TAP	19	0	1
TAP	19	48	0
TAP	19	96	0
TAP	19	144	1
TAP	19	192	2
TAP	19	240	2
TAP	19	288	1
TAP	19	336	0
TAP	20	0	0
TAP	20	48	1
TAP	20	96	2
TAP	20	144	2
STR	20	192	1
SCR	20	192	1	96	48	4
TAP	20	240	1
TAP	21	0	2
TAP	21	0	6
TAP	21	48	5
TAP	21	96	4
TAP	21	144	1
TAP	21	144	5
TAP	21	192	2
TAP	21	240	3
TAP	21	288	2
TAP	21	288	6
TAP	21	336	5
TAP	22	0	4
TAP	22	48	1
TAP	22	48	5
TAP	22	96	2
TAP	22	144	3
STR	22	192	2
SCL	22	192	2	96	48	7
STR	22	192	6
SCL	22	192	6	96	48	3
TAP	22	240	2
TAP	22	240	6
TAP	23	0	5
TAP	23	24	4
TAP	23	48	5
TAP	23	72	4
TAP	23	96	5
TAP	23	120	4
TAP	23	144	5
TAP	23	168	4
TAP	23	192	6
TAP	23	216	3
TAP	23	240	6
TAP	23	264	3
TAP	23	288	6
TAP	23	312	3
TAP	23	336	6
TAP	23	360	3
TAP	24	0	5
TAP	24	24	4
TAP	24	48	5
TAP	24	72	4
STR	24	96	5
SCR	24	96	5	96	48	0
TAP	24	120	4
TAP	24	144	5
STR	24	168	4
SCL	24	168	4	96	72	1
TAP	25	48	2
TAP	25	144	3
TAP	25	240	4
TAP	25	336	5
TAP	26	48	6
TAP	26	144	7
TAP	26	240	6
TAP	26	336	5
TAP	27	48	4
TAP	27	144	3
TAP	27	240	2
TAP	27	336	1
TAP	28	48	0
TAP	28	144	7
STR	28	192	7
SI_	28	192	7	96	48	3
HLD	29	0	2	72
TAP	29	72	3
TAP	29	96	2
TAP	29	144	2
TAP	29	192	7
TAP	29	240	6
TAP	29	288	2
HLD	30	0	5	72
TAP	30	72	4
TAP	30	96	5
TAP	30	144	5
TAP	30	192	0
TAP	30	240	1
TAP	30	288	5
HLD	31	0	2	72
TAP	31	72	3
TAP	31	96	2
TAP	31	144	2
TAP	31	192	7
TAP	31	240	6
TAP	31	288	2
STR	32	0	2
SI_	32	0	2	96	48	5
STR	32	144	1
SI_	32	144	1	96	48	6
BRK	32	288	0
TAP	33	0	2
TAP	33	0	3
TAP	33	48	1
TAP	33	96	2
TAP	33	144	1
TAP	33	192	2
TAP	33	192	3
TAP	33	240	4
TAP	33	288	3
TAP	33	336	4
TAP	34	0	2
TAP	34	0	3
TAP	34	48	1
TAP	34	96	2
TAP	34	144	1
TAP	34	192	2
TAP	34	192	3
TAP	34	240	4
TAP	34	288	3
TAP	34	336	4
TAP	35	0	2
TAP	35	0	3
TAP	35	48	1
TAP	35	96	2
TAP	35	144	3
TAP	35	192	2
TAP	35	192	4
TAP	35	240	3
TAP	35	288	2
TAP	35	336	1
TAP	36	0	2
TAP	36	0	3
TAP	36	48	1
TAP	36	96	2
STR	36	144	1
SI_	36	144	1	96	48	6
TAP	37	0	4
TAP	37	0	5
TAP	37	48	6
TAP	37	96	5
TAP	37	144	6
TAP	37	192	4
TAP	37	192	5
TAP	37	240	3
TAP	37	288	4
TAP	37	336	3
TAP	38	0	4
TAP	38	0	5
TAP	38	48	6
TAP	38	96	5
TAP	38	144	6
TAP	38	192	4
TAP	38	192	5
TAP	38	240	3
TAP	38	288	4
TAP	38	336	3
TAP	39	0	4
TAP	39	0	5
TAP	39	48	6
TAP	39	96	5
TAP	39	144	4
TAP	39	192	3
TAP	39	192	5
TAP	39	240	4
TAP	39	288	5
TAP	39	336	6
TAP	40	0	4
TAP	40	0	5
TAP	40	48	6
TAP	40	96	5
STR	40	144	6
SI_	40	144	6	96	48	1
TAP	41	0	2
TAP	41	24	3
TAP	41	48	2
TAP	41	96	2
TAP	41	120	3
TAP	41	144	2
TAP	41	192	5
TAP	41	216	4
TAP	41	240	5
TAP	41	288	5
TAP	41	312	4
TAP	41	336	5
TAP	42	0	2
TAP	42	24	3
TAP	42	48	2
TAP	42	96	5
TAP	42	120	4
TAP	42	144	5
TAP	42	192	2
TAP	42	216	3
TAP	42	240	2
TAP	42	288	5
TAP	42	312	4
TAP	42	336	5
TAP	43	0	1
TAP	43	24	0
TAP	43	48	1
TAP	43	96	1
TAP	43	120	0
TAP	43	144	1
TAP	43	192	6
TAP	43	216	7
TAP	43	240	6
TAP	43	288	6
TAP	43	312	7
TAP	43	336	6
TAP	44	0	1
TAP	44	24	0
TAP	44	48	1
TAP	44	96	6
TAP	44	120	7
TAP	44	144	6
TAP	44	192	1
TAP	44	216	0
TAP	44	240	1
TAP	44	288	6
TAP	44	312	7
TAP	44	336	6
STR	45	0	0
SI_	45	0	0	96	48	5
STR	45	96	6
SI_	45	96	6	96	48	3
STR	45	192	1
SI_	45	192	1	96	48	4
STR	45	288	7
SI_	45	288	7	96	48	2
STR	46	0	4
SI_	46	0	4	96	48	1
STR	46	96	3
SI_	46	96	3	96	48	6
STR	46	192	5
SI_	46	192	5	96	48	0
STR	46	288	2
SI_	46	288	2	96	48	7
STR	47	0	1
SCR	47	0	1	96	48	4
STR	47	96	5
SCR	47	96	5	96	48	0
STR	47	192	1
SCL	47	192	1	96	48	6
STR	47	288	5
SCL	47	288	5	96	48	2
STR	48	0	1
SCR	48	0	1	96	96	4
STR	48	96	4
SCR	48	96	4	96	96	7
BRK	48	192	7
TAP	49	0	0
TAP	49	48	7
STR	49	96	6
SCL	49	96	6	96	48	3
HLD	49	264	1	72
TAP	49	336	2
TAP	50	0	7
TAP	50	48	0
STR	50	96	1
SCR	50	96	1	96	48	4
HLD	50	264	6	72
TAP	50	336	5
TAP	51	0	0
TAP	51	48	7
HLD	51	96	6	240
TAP	51	192	5
TAP	51	240	5
HLD	51	336	1	240
TAP	52	48	2
TAP	52	96	2
BRK	52	192	6
TAP	52	288	0
TAP	52	336	1
TAP	53	0	2
TAP	53	48	3
STR	53	96	4
SCL	53	96	4	96	48	1
HLD	53	264	7	72
TAP	53	336	6
TAP	54	0	5
TAP	54	48	4
STR	54	96	3
SCR	54	96	3	96	48	6
HLD	54	264	0	72
TAP	54	336	1
STR	55	0	2
SI_	55	0	2	96	144	6
STR	55	144	0
SI_	55	144	0	96	144	4
STR	55	288	5
SCL	55	288	5	96	144	2
TAP	56	192	1
TAP	56	240	5
TAP	56	264	4
TAP	56	288	5
TAP	56	336	3
STR	57	0	6
SCL	57	0	6	96	48	3
TAP	57	48	7
HLD	57	192	0	72
HLD	57	264	1	72
TAP	57	336	2
STR	58	0	1
SCR	58	0	1	96	48	4
TAP	58	48	0
HLD	58	192	7	72
HLD	58	264	6	72
TAP	58	336	5
TAP	59	0	4
TAP	59	48	3
STR	59	96	2
SCR	59	96	2	96	48	5
STR	59	192	6
SCL	59	192	6	96	48	3
TAP	59	240	6
BRK	59	336	1
TAP	60	48	0
HLD	60	96	0	96
HLD	60	192	7	72
HLD	60	264	6	72
STR	60	336	5
SI_	60	336	5	96	144	1
STR	61	144	7
SI_	61	144	7	96	96	3
STR	61	288	1
SCR	61	288	1	96	96	4
STR	62	0	7
SCL	62	0	7	96	96	4
STR	62	144	2
SCL	62	144	2	96	96	7
STR	62	288	6
SCL	62	288	6	96	96	3
STR	63	0	0
SI_	63	0	0	96	96	4
STR	63	144	7
SCR	63	144	7	96	96	2
TAP	64	0	3
TAP	64	48	4
TAP	64	96	5
TAP	64	144	6
TAP	64	192	7
TAP	64	204	6
TAP	64	216	5
TAP	64	228	4
TAP	64	240	3
TAP	64	252	2
TAP	64	264	1
TAP	64	276	0
BRK	64	288	7
HLD	65	0	1	96
TAP	65	96	2
HLD	65	192	5	72
HLD	65	264	6	72
TAP	65	336	7
TAP	66	0	1
TAP	66	48	5
TAP	66	72	4
TAP	66	96	6
TAP	66	120	4
TAP	66	144	5
TAP	66	192	2
TAP	66	216	3
STR	66	240	2
SCL	66	240	2	96	48	7
TAP	66	264	3
TAP	66	288	2
HLD	67	0	6	96
TAP	67	96	4
HLD	67	192	2	72
HLD	67	264	1	72
TAP	67	336	0
TAP	68	0	5
TAP	68	24	4
TAP	68	48	6
TAP	68	96	2
TAP	68	120	3
TAP	68	144	1
STR	68	192	5
SCL	68	192	5	96	48	2
TAP	68	216	4
TAP	68	240	5
HLD	69	0	0	96
TAP	69	96	1
STR	69	192	2
SI_	69	192	2	96	48	5
STR	69	192	7
SI_	69	192	7	96	48	4
STR	70	0	1
SCR	70	0	1	96	48	4
STR	70	0	5
SCR	70	0	5	96	48	0
STR	70	192	1
SI_	70	192	1	96	48	4
STR	70	192	7
SI_	70	192	7	96	48	4
STR	71	0	6
SI_	71	0	6	96	96	1
STR	71	96	1
SCL	71	96	1	96	96	6
STR	71	192	6
SCL	71	192	6	96	96	3
BRK	71	288	3
TAP	73	0	5
TAP	73	96	3
TAP	73	96	6
HLD	73	192	0	72
HLD	73	264	1	72
TAP	73	336	2
TAP	74	0	6
TAP	74	48	2
TAP	74	72	3
TAP	74	96	1
TAP	74	120	3
TAP	74	144	2
TAP	74	192	5
TAP	74	216	4
STR	74	240	5
SCR	74	240	5	96	48	0
TAP	74	264	3
TAP	74	288	5
TAP	75	0	2
TAP	75	96	1
TAP	75	96	4
HLD	75	192	7	72
HLD	75	264	6	72
TAP	75	336	5
TAP	76	0	2
TAP	76	24	3
TAP	76	48	1
TAP	76	96	5
TAP	76	120	4
TAP	76	144	6
STR	76	192	2
SCR	76	192	2	96	48	5
TAP	76	216	3
TAP	76	240	2
HLD	77	0	7	96
TAP	77	96	6
HLD	77	192	5	72
HLD	77	264	4	72
STR	77	336	3
SCR	77	336	3	96	48	6
TAP	78	144	7
HLD	78	192	7	96
BRK	78	288	0
HLD	79	0	0	72
HLD	79	72	1	72
TAP	79	144	2
HLD	79	192	7	72
HLD	79	264	6	72
TAP	79	336	5
HLD	80	0	1	72
HLD	80	72	2	72
TAP	80	144	3
HLD	80	192	6	72
HLD	80	264	5	72
TAP	80	336	4
BRK	81	0	3

T_REC_TAP	392
T_REC_BRK	12
T_REC_XTP	0
T_REC_HLD	46
T_REC_XHO	0
T_REC_STR	67
T_REC_BST	0
T_REC_XST	0
T_REC_TTP	0
T_REC_THO	0
T_REC_SLD	67
T_REC_ALL	584
T_NUM_TAP	459
T_NUM_BRK	12
T_NUM_HLD	46
T_NUM_SLD	67
T_NUM_ALL	584
T_JUDGE_TAP	471
T_JUDGE_HLD	98
T_JUDGE_SLD	67
T_JUDGE_ALL	636
TTM_EACHPAIRS	33
TTM_SCR_TAP	229500
TTM_SCR_BRK	31200
TTM_SCR_HLD	46000
TTM_SCR_SLD	100500
TTM_SCR_ALL	407200
TTM_SCR_S	393850
TTM_SCR_SS	406000
TTM_RAT_ACV	10029

