VERSION	0.00.00	1.03.00
FES_MODE	0
BPM_DEF	170.000	170.000	170.000	170.000
MET_DEF	4	4
RESOLUTION	384
CLK_DEF	384
COMPATIBLE_CODE	MA2

BPM	0	0	170.000
MET	0	0	4	4

HLD	1	0	6	192
TAP	1	192	3
TAP	1	288	3
HLD	2	0	1	192
TAP	2	192	4
TAP	2	288	4
HLD	3	0	5	192
TAP	3	192	0
TAP	3	288	0
HLD	4	0	2	192
TAP	4	192	7
TAP	4	288	7
HLD	5	192	1	96
HLD	5	192	2	96
HLD	6	192	3	96
HLD	6	192	4	96
HLD	7	192	5	96
HLD	7	192	6	96
TAP	8	0	7
TAP	8	96	0
BRK	8	192	1
BRK	8	192	6
TAP	9	0	1
TAP	9	96	2
TAP	9	192	3
TAP	9	288	4
TAP	10	0	5
HLD	10	96	6	96
TAP	10	192	7
TAP	10	240	7
TAP	10	288	7
TAP	11	0	6
TAP	11	96	5
TAP	11	192	4
TAP	11	288	3
TAP	12	0	2
HLD	12	96	1	96
TAP	12	192	0
TAP	12	240	0
TAP	12	288	0
TAP	13	0	1
TAP	13	96	2
TAP	13	192	3
TAP	13	288	4
TAP	14	0	5
HLD	14	96	6	96
TAP	14	192	7
TAP	14	240	7
TAP	14	288	7
HLD	15	0	0	96
HLD	15	96	6	192
TAP	15	192	4
TAP	15	288	4
TAP	16	0	2
HLD	16	96	2	96
TAP	16	192	1
TAP	16	240	1
TAP	16	288	1
HLD	17	0	1	96
TAP	17	96	0
HLD	17	192	2	96
TAP	17	288	3
HLD	18	0	5	96
TAP	18	96	4
TAP	18	192	7
TAP	18	240	7
TAP	18	288	7
HLD	19	0	6	96
TAP	19	96	7
HLD	19	192	5	96
TAP	19	288	4
HLD	20	0	2	96
TAP	20	96	3
TAP	20	192	0
TAP	20	240	0
TAP	20	288	0
HLD	21	0	1	96
HLD	21	96	2	96
HLD	21	192	3	96
HLD	21	288	4	96
HLD	22	0	5	96
HLD	22	96	6	96
TAP	22	192	0
TAP	22	240	0
TAP	22	288	7
HLD	23	0	6	96
HLD	23	96	5	96
HLD	23	192	4	96
HLD	23	288	3	96
HLD	24	0	2	96
HLD	24	96	1	96
TAP	24	192	0
TAP	24	240	0
TAP	24	288	7
TAP	24	336	7
STR	25	0	0
SCR	25	0	0	96	192	3
STR	26	0	4
SCR	26	0	4	96	192	7
STR	27	0	0
SCR	27	0	0	96	192	3
STR	28	0	4
SCR	28	0	4	96	192	7
STR	29	0	0
SCL	29	0	0	96	192	5
STR	30	0	4
SCL	30	0	4	96	192	1
STR	31	0	0
SCL	31	0	0	96	192	5
STR	32	0	4
SCL	32	0	4	96	192	1
TAP	33	0	2
TAP	33	0	3
TAP	33	96	2
TAP	33	96	3
TAP	33	192	0
TAP	33	192	1
TAP	33	288	0
TAP	33	288	1
TAP	34	0	6
TAP	34	0	7
TAP	34	96	6
TAP	34	96	7
TAP	34	192	4
TAP	34	192	5
TAP	34	288	4
TAP	34	288	5
TAP	35	0	6
TAP	35	0	7
TAP	35	96	0
TAP	35	96	1
TAP	35	192	2
TAP	35	192	3
TAP	35	288	4
TAP	35	288	5
TAP	36	0	6
TAP	36	0	7
STR	36	96	0
SI_	36	96	0	96	96	5
STR	36	96	1
SI_	36	96	1	96	96	4
TAP	37	0	4
TAP	37	0	5
TAP	37	96	4
TAP	37	96	5
TAP	37	192	6
TAP	37	192	7
TAP	37	288	6
TAP	37	288	7
TAP	38	0	0
TAP	38	0	1
TAP	38	96	0
TAP	38	96	1
TAP	38	192	2
TAP	38	192	3
TAP	38	288	2
TAP	38	288	3
TAP	39	0	0
TAP	39	0	1
TAP	39	96	6
TAP	39	96	7
TAP	39	192	4
TAP	39	192	5
TAP	39	288	2
TAP	39	288	3
TAP	40	0	0
TAP	40	0	1
STR	40	96	6
SI_	40	96	6	96	96	3
STR	40	96	7
SI_	40	96	7	96	96	2
HLD	41	0	7	96
HLD	41	96	6	96
HLD	41	192	5	96
HLD	41	288	4	96
HLD	42	0	0	96
HLD	42	96	1	96
HLD	42	192	2	96
HLD	42	288	3	96
HLD	43	0	6	96
HLD	43	96	7	96
HLD	43	192	0	96
HLD	43	288	1	96
HLD	44	0	5	96
HLD	44	96	4	96
HLD	44	192	3	96
TAP	44	288	2
TAP	45	0	0
TAP	45	0	7
TAP	45	96	6
TAP	45	96	7
TAP	45	192	5
TAP	45	192	6
TAP	45	288	4
TAP	45	288	5
TAP	46	0	0
TAP	46	0	7
TAP	46	96	0
TAP	46	96	1
TAP	46	192	1
TAP	46	192	2
TAP	46	288	2
TAP	46	288	3
TAP	47	0	0
TAP	47	0	7
TAP	47	96	1
TAP	47	96	6
TAP	47	192	2
TAP	47	192	5
TAP	47	288	3
TAP	47	288	4
TAP	48	0	1
TAP	48	0	6
STR	48	96	0
SCR	48	96	0	96	96	3
STR	48	96	7
SCL	48	96	7	96	96	4
HLD	49	0	6	288
TAP	49	96	0
TAP	49	192	7
TAP	49	288	5
HLD	50	0	1	288
TAP	50	96	7
TAP	50	192	0
TAP	50	288	2
TAP	51	0	0
TAP	51	0	7
TAP	51	96	0
TAP	51	192	7
TAP	51	240	7
TAP	51	336	0
TAP	52	48	7
TAP	52	96	7
TAP	52	192	1
TAP	52	192	6
HLD	53	0	5	288
TAP	53	96	7
TAP	53	192	6
TAP	53	288	4
HLD	54	0	2	288
TAP	54	96	0
TAP	54	192	1
TAP	54	288	3
HLD	55	0	5	144
HLD	55	144	4	144
HLD	55	288	3	96
BRK	56	0	2
TAP	56	192	0
TAP	56	288	1
HLD	57	0	2	288
TAP	57	96	4
TAP	57	192	3
TAP	57	288	1
HLD	58	0	5	288
TAP	58	96	3
TAP	58	192	4
TAP	58	288	6
TAP	59	0	3
TAP	59	0	4
TAP	59	96	4
TAP	59	192	3
TAP	59	240	3
TAP	59	336	4
HLD	60	96	0	96
HLD	60	192	7	96
HLD	60	288	6	96
STR	61	0	5
SCL	61	0	5	96	144	2
STR	62	0	2
SCR	62	0	2	96	144	5
STR	63	0	0
SI_	63	0	0	96	144	3
TAP	65	0	7
TAP	65	96	6
TAP	65	192	5
TAP	65	240	5
STR	65	336	4
SCL	65	336	4	96	192	1
TAP	67	0	0
TAP	67	96	1
TAP	67	192	2
TAP	67	240	2
STR	67	336	3
SCR	67	336	3	96	192	6
TAP	69	0	3
TAP	69	96	2
TAP	69	192	1
TAP	69	288	0
TAP	70	0	7
TAP	70	96	6
TAP	70	192	5
TAP	70	288	4
TAP	71	0	3
TAP	71	0	4
TAP	71	96	2
TAP	71	96	5
BRK	71	192	1
BRK	71	192	6
STR	71	288	0
SCR	71	288	0	96	192	3
STR	71	288	7
SCL	71	288	7	96	192	4
TAP	73	0	0
HLD	73	96	1	96
TAP	73	192	2
TAP	73	240	2
STR	73	336	3
SI_	73	336	3	96	144	7
TAP	75	0	7
HLD	75	96	6	96
TAP	75	192	5
TAP	75	240	5
STR	75	336	4
SI_	75	336	4	96	144	0
HLD	77	0	4	96
HLD	77	96	5	96
HLD	77	192	6	96
HLD	77	288	7	96
HLD	78	0	0	96
HLD	78	96	1	96
HLD	78	192	2	96
HLD	78	288	3	96
STR	79	0	4
SI_	79	0	4	96	96	1
STR	79	192	0
SI_	79	192	0	96	96	5
STR	80	0	7
SI_	80	0	7	96	96	2
STR	80	192	3
SI_	80	192	3	96	96	6
BRK	81	0	0

T_REC_TAP	200
T_REC_BRK	6
T_REC_XTP	0
T_REC_HLD	71
T_REC_XHO	0
T_REC_STR	27
T_REC_BST	0
T_REC_XST	0
T_REC_TTP	0
T_REC_THO	0
T_REC_SLD	27
T_REC_ALL	331
T_NUM_TAP	227
T_NUM_BRK	6
T_NUM_HLD	71
T_NUM_SLD	27
T_NUM_ALL	331
T_JUDGE_TAP	233
T_JUDGE_HLD	178
T_JUDGE_SLD	27
T_JUDGE_ALL	438
TTM_EACHPAIRS	53
TTM_SCR_TAP	113500
TTM_SCR_BRK	15600
TTM_SCR_HLD	71000
TTM_SCR_SLD	40500
TTM_SCR_ALL	240600
TTM_SCR_S	232800
TTM_SCR_SS	240000
TTM_RAT_ACV	10025

