VERSION	0.00.00	1.03.00
FES_MODE	0
BPM_DEF	170.000	170.000	170.000	170.000
MET_DEF	4	4
RESOLUTION	384
CLK_DEF	384
COMPATIBLE_CODE	MA2

BPM	0	0	170.000
MET	0	0	4	4

TAP	1	0	0
TAP	2	0	7
TAP	3	0	0
TAP	3	0	1
TAP	4	0	6
TAP	4	0	7
TAP	4	192	0
TAP	4	192	7
TAP	5	0	1
TAP	5	192	1
TAP	6	0	5
TAP	6	192	5
TAP	7	0	3
TAP	7	192	3
TAP	8	0	7
TAP	8	96	7
BRK	8	192	7
TAP	9	0	6
TAP	9	96	6
TAP	9	192	5
TAP	9	288	5
TAP	10	0	4
TAP	10	96	4
TAP	10	192	3
TAP	10	288	3
TAP	11	0	1
TAP	11	96	1
TAP	11	192	2
TAP	11	288	2
TAP	12	0	3
TAP	12	96	3
TAP	12	192	4
TAP	12	288	4
TAP	13	0	7
TAP	13	96	6
TAP	13	192	5
TAP	13	288	4
TAP	14	0	3
TAP	14	96	2
TAP	14	192	1
TAP	14	288	0
TAP	14	288	7
HLD	15	0	1	192
HLD	15	192	6	192
TAP	16	0	0
TAP	16	96	0
TAP	16	192	7
BRK	16	288	7
TAP	17	0	7
TAP	17	96	6
TAP	17	192	5
TAP	17	288	4
TAP	18	0	0
TAP	18	96	1
TAP	18	192	2
TAP	18	288	3
TAP	19	0	1
TAP	19	96	1
TAP	19	192	0
TAP	19	288	0
TAP	20	0	7
TAP	20	96	7
TAP	20	192	6
TAP	20	192	7
TAP	21	0	2
TAP	21	96	2
TAP	21	192	3
TAP	21	288	3
TAP	22	0	4
TAP	22	96	4
TAP	22	192	4
TAP	22	192	5
TAP	23	0	6
TAP	23	0	7
TAP	23	192	0
TAP	23	192	1
TAP	24	0	0
TAP	24	0	7
TAP	24	96	6
TAP	24	96	7
TAP	24	192	5
TAP	24	192	6
BRK	24	288	4
BRK	24	288	5
STR	25	0	3
SI_	25	0	3	96	192	6
STR	26	0	4
SI_	26	0	4	96	192	1
STR	27	0	7
SI_	27	0	7	96	192	2
STR	28	0	0
SI_	28	0	0	96	192	5
TAP	29	0	3
TAP	30	0	3
TAP	31	0	2
TAP	31	0	4
TAP	31	192	2
TAP	31	192	4
TAP	32	0	3
TAP	32	96	2
TAP	32	96	4
TAP	32	192	1
TAP	32	192	5
BRK	32	288	0
BRK	32	288	6
TAP	33	0	1
TAP	33	96	1
TAP	33	192	0
TAP	33	288	0
TAP	34	0	7
TAP	34	96	7
TAP	34	192	6
TAP	34	288	6
TAP	35	0	2
TAP	35	96	2
TAP	35	192	3
TAP	35	288	3
TAP	36	0	4
TAP	36	96	4
TAP	36	192	4
TAP	36	192	5
TAP	37	0	6
TAP	37	96	6
TAP	37	192	7
TAP	37	288	7
TAP	38	0	0
TAP	38	96	0
TAP	38	192	1
TAP	38	288	1
TAP	39	0	5
TAP	39	96	5
TAP	39	192	4
TAP	39	288	4
TAP	40	0	3
TAP	40	96	3
TAP	40	192	2
TAP	40	192	4
TAP	41	0	1
TAP	41	96	0
TAP	41	192	1
TAP	41	288	0
TAP	42	0	2
TAP	42	96	3
TAP	42	192	2
TAP	42	288	3
TAP	43	0	6
TAP	43	96	7
TAP	43	192	6
TAP	43	288	7
TAP	44	0	5
TAP	44	96	4
TAP	44	192	5
TAP	44	288	4
TAP	45	0	0
TAP	45	96	0
TAP	45	192	0
TAP	45	288	0
TAP	46	0	7
TAP	46	96	7
TAP	46	192	7
TAP	46	288	7
TAP	47	0	0
TAP	47	0	1
TAP	47	192	6
TAP	47	192	7
TAP	48	0	4
TAP	48	0	5
TAP	48	96	2
TAP	48	96	3
BRK	48	192	0
BRK	48	192	1
STR	49	0	0
SI_	49	0	0	96	192	4
STR	50	0	7
SI_	50	0	7	96	192	3
TAP	51	0	3
TAP	51	0	4
TAP	51	192	3
TAP	51	192	4
TAP	52	0	2
TAP	52	0	5
TAP	52	96	1
TAP	52	96	6
BRK	52	192	0
BRK	52	192	7
TAP	53	0	0
TAP	53	96	1
TAP	53	192	2
TAP	53	288	3
TAP	54	0	4
TAP	54	96	5
TAP	54	192	6
TAP	54	288	7
HLD	55	0	0	144
TAP	55	288	2
TAP	56	0	2
TAP	56	0	3
STR	57	0	1
SI_	57	0	1	96	192	6
STR	58	0	5
SI_	58	0	5	96	192	2
TAP	59	0	1
TAP	59	0	5
TAP	59	192	1
TAP	59	192	5
TAP	60	0	2
TAP	60	0	6
TAP	60	96	3
TAP	60	96	7
BRK	60	192	0
BRK	60	192	4
TAP	61	0	0
TAP	61	96	1
HLD	61	192	2	96
TAP	61	288	3
TAP	62	0	7
TAP	62	96	6
HLD	62	192	5	96
TAP	62	288	4
STR	63	0	0
SI_	63	0	0	96	192	3
STR	64	0	2
SI_	64	0	2	96	192	6
TAP	65	0	0
TAP	65	96	1
TAP	65	192	2
TAP	65	288	3
TAP	66	0	4
TAP	66	96	5
TAP	66	192	6
TAP	66	288	7
TAP	67	0	7
TAP	67	96	6
TAP	67	192	5
TAP	67	288	4
TAP	68	0	3
TAP	68	96	2
TAP	68	192	1
TAP	68	288	0
TAP	68	288	7
TAP	69	0	0
TAP	69	96	2
TAP	69	192	4
TAP	69	288	6
TAP	70	0	7
TAP	70	96	5
TAP	70	192	3
TAP	70	288	1
TAP	71	0	1
TAP	71	96	0
TAP	71	192	7
TAP	71	288	6
BRK	72	0	0
BRK	72	0	7
TAP	73	0	6
TAP	73	96	0
TAP	73	192	2
TAP	73	288	4
TAP	74	0	2
TAP	74	96	0
TAP	74	192	6
TAP	74	288	4
TAP	75	0	6
TAP	75	96	4
TAP	75	192	2
TAP	75	288	0
TAP	76	0	2
TAP	76	96	4
TAP	76	192	6
TAP	76	288	1
TAP	77	0	6
TAP	77	96	7
TAP	77	192	0
TAP	77	288	1
TAP	78	0	2
TAP	78	96	3
TAP	78	192	4
STR	79	0	4
SI_	79	0	4	96	192	0
STR	80	0	2
SI_	80	0	2	96	192	7
BRK	81	0	0
BRK	81	0	7

T_REC_TAP	238
T_REC_BRK	16
T_REC_XTP	0
T_REC_HLD	5
T_REC_XHO	0
T_REC_STR	12
T_REC_BST	0
T_REC_XST	0
T_REC_TTP	0
T_REC_THO	0
T_REC_SLD	12
T_REC_ALL	283
T_NUM_TAP	250
T_NUM_BRK	16
T_NUM_HLD	5
T_NUM_SLD	12
T_NUM_ALL	283
T_JUDGE_TAP	266
T_JUDGE_HLD	15
T_JUDGE_SLD	12
T_JUDGE_ALL	293
TTM_EACHPAIRS	38
TTM_SCR_TAP	125000
TTM_SCR_BRK	41600
TTM_SCR_HLD	5000
TTM_SCR_SLD	18000
TTM_SCR_ALL	189600
TTM_SCR_S	182400
TTM_SCR_SS	188000
TTM_RAT_ACV	10085

