VERSION	0.00.00	1.03.00
FES_MODE	0
BPM_DEF	170.000	170.000	170.000	170.000
MET_DEF	4	4
RESOLUTION	384
CLK_DEF	384
COMPATIBLE_CODE	MA2

BPM	0	0	170.000
MET	0	0	4	4

TAP	5	192	2
TAP	5	192	3
TAP	6	192	2
TAP	6	192	3
TAP	7	192	2
TAP	7	192	3
TAP	8	0	0
TAP	8	0	1
TAP	9	0	5
TAP	9	192	4
TAP	10	0	3
TAP	10	192	2
TAP	10	192	3
TAP	11	0	2
TAP	11	192	3
TAP	12	0	4
TAP	12	192	4
TAP	12	192	5
TAP	13	0	4
TAP	13	192	3
TAP	14	0	4
TAP	14	192	3
TAP	14	192	4
HLD	15	0	5	288
TAP	16	0	6
TAP	16	192	7
TAP	17	0	7
TAP	17	192	5
TAP	18	0	6
TAP	18	192	4
TAP	18	192	5
TAP	18	288	4
TAP	18	288	5
TAP	19	0	3
TAP	19	192	2
TAP	20	0	1
TAP	20	192	2
TAP	20	192	3
TAP	20	288	2
TAP	20	288	3
TAP	21	0	4
TAP	21	192	3
TAP	22	0	4
TAP	22	192	3
TAP	22	192	4
TAP	22	288	3
TAP	22	288	4
STR	23	0	2
SI_	23	0	2	96	120	5
TAP	24	192	6
TAP	24	192	7
TAP	24	288	6
TAP	24	288	7
TAP	25	192	6
TAP	26	192	4
TAP	27	192	2
TAP	28	192	0
TAP	29	0	6
TAP	29	192	4
TAP	30	0	2
TAP	30	192	0
TAP	31	0	2
TAP	31	192	4
STR	32	0	2
SI_	32	0	2	96	120	5
TAP	33	96	4
TAP	33	288	6
TAP	34	96	5
TAP	34	192	5
TAP	34	288	5
TAP	35	96	4
TAP	35	288	6
TAP	36	96	5
TAP	36	192	5
TAP	36	192	6
TAP	37	96	3
TAP	37	288	1
TAP	38	96	2
TAP	38	192	2
TAP	38	288	2
TAP	39	96	3
TAP	39	288	1
TAP	40	96	2
TAP	40	192	1
TAP	40	192	2
TAP	41	0	5
TAP	41	96	5
TAP	41	192	3
TAP	41	288	3
TAP	42	0	2
TAP	42	96	2
TAP	42	192	2
TAP	43	0	5
TAP	43	96	5
TAP	43	192	3
TAP	43	288	3
TAP	44	0	2
TAP	44	96	2
TAP	44	192	2
TAP	45	0	6
TAP	45	96	6
TAP	45	192	7
TAP	45	288	7
TAP	46	0	1
TAP	46	96	1
TAP	46	192	0
TAP	46	288	0
TAP	47	96	6
TAP	47	96	7
STR	48	0	5
SI_	48	0	5	96	120	2
BRK	49	0	1
TAP	49	192	0
TAP	50	0	7
TAP	50	192	6
TAP	51	0	6
TAP	51	192	4
TAP	52	0	3
TAP	52	96	2
TAP	52	192	1
TAP	53	0	2
TAP	53	192	3
TAP	54	0	4
TAP	54	192	5
TAP	55	0	6
TAP	55	0	7
TAP	56	0	0
TAP	56	0	1
TAP	57	0	5
TAP	57	192	6
TAP	58	0	0
TAP	58	192	1
TAP	59	0	6
TAP	59	192	4
TAP	60	0	3
TAP	60	96	2
TAP	60	192	1
TAP	61	0	2
TAP	61	192	3
TAP	62	0	4
TAP	62	192	5
STR	63	0	3
SI_	63	0	3	96	120	7
TAP	65	0	6
TAP	65	96	6
TAP	65	192	4
TAP	65	288	4
BRK	66	0	4
TAP	67	0	1
TAP	67	96	1
TAP	67	192	3
TAP	67	288	3
TAP	68	0	3
TAP	69	0	5
TAP	69	96	5
TAP	69	192	4
TAP	69	288	4
TAP	70	0	3
TAP	70	192	2
TAP	71	0	3
TAP	71	96	3
TAP	71	192	4
TAP	71	288	4
TAP	72	0	4
TAP	72	0	5
TAP	73	0	1
TAP	73	96	1
TAP	73	192	3
TAP	73	288	3
BRK	74	0	3
TAP	75	0	6
TAP	75	96	6
TAP	75	192	4
TAP	75	288	4
TAP	76	0	4
TAP	77	0	2
TAP	77	96	2
TAP	77	192	3
TAP	77	288	3
TAP	78	0	4
TAP	78	96	4
TAP	78	192	5
TAP	78	288	5
HLD	79	0	6	192
HLD	79	0	7	192
HLD	80	0	0	192
HLD	80	0	1	192
BRK	81	0	0
BRK	81	0	7

T_REC_TAP	171
T_REC_BRK	5
T_REC_XTP	0
T_REC_HLD	5
T_REC_XHO	0
T_REC_STR	4
T_REC_BST	0
T_REC_XST	0
T_REC_TTP	0
T_REC_THO	0
T_REC_SLD	4
T_REC_ALL	189
T_NUM_TAP	175
T_NUM_BRK	5
T_NUM_HLD	5
T_NUM_SLD	4
T_NUM_ALL	189
T_JUDGE_TAP	180
T_JUDGE_HLD	22
T_JUDGE_SLD	4
T_JUDGE_ALL	206
TTM_EACHPAIRS	24
TTM_SCR_TAP	87500
TTM_SCR_BRK	13000
TTM_SCR_HLD	5000
TTM_SCR_SLD	6000
TTM_SCR_ALL	111500
TTM_SCR_S	107700
TTM_SCR_SS	111000
TTM_RAT_ACV	10045

