VERSION	0.00.00	1.03.00
FES_MODE	0
BPM_DEF	138.000	138.000	138.000	138.000
MET_DEF	4	4
RESOLUTION	384
CLK_DEF	384
COMPATIBLE_CODE	MA2

BPM	0	0	138.000
MET	0	0	4	4

STR	1	0	1
SI_	1	0	1	96	48	5
STR	1	96	7
SI_	1	96	7	96	48	3
TAP	1	192	0
TAP	1	288	2
TAP	1	312	4
TAP	1	336	1
TAP	1	360	3
TAP	2	0	0
TAP	2	96	1
TAP	2	96	4
TAP	2	192	3
TAP	2	192	6
TAP	2	288	1
TAP	2	336	0
TAP	2	336	7
STR	3	0	6
SI_	3	0	6	96	48	2
STR	3	96	0
SI_	3	96	0	96	48	4
TAP	3	192	7
TAP	3	288	5
TAP	3	312	3
TAP	3	336	6
TAP	3	360	4
TAP	4	0	7
TAP	4	96	3
TAP	4	96	6
TAP	4	192	1
TAP	4	192	4
STR	4	288	5
SI_	4	288	5	96	48	2
TAP	4	336	5
STR	5	0	1
SI_	5	0	1	96	48	6
STR	5	96	7
SI_	5	96	7	96	48	3
TAP	5	192	0
TAP	5	288	7
TAP	5	312	3
TAP	5	336	5
TAP	5	360	1
TAP	6	0	7
TAP	6	96	1
TAP	6	96	2
TAP	6	192	5
TAP	6	192	6
STR	6	288	2
SI_	6	288	2	96	48	5
TAP	6	336	2
STR	7	0	6
SI_	7	0	6	96	48	1
STR	7	96	0
SI_	7	96	0	96	48	4
TAP	7	192	7
TAP	7	288	0
TAP	7	312	4
TAP	7	336	2
TAP	7	360	6
STR	8	0	0
SUL	8	0	0	96	96	7
TAP	8	96	6
STR	8	192	5
SI_	8	192	5	96	48	1
BRK	8	288	7
HLD	9	0	2	48
TAP	9	48	3
TAP	9	72	2
TAP	9	120	1
TAP	9	144	0
TAP	9	168	1
HLD	9	192	5	48
TAP	9	240	4
TAP	9	264	5
TAP	9	312	6
TAP	9	336	7
TAP	9	360	6
HLD	10	0	0	48
TAP	10	48	7
TAP	10	72	0
TAP	10	120	1
TAP	10	144	4
TAP	10	168	3
STR	10	192	6
SI_	10	192	6	96	48	2
STR	10	240	0
SI_	10	240	0	96	48	4
HLD	11	0	5	48
TAP	11	48	4
TAP	11	72	5
TAP	11	120	6
TAP	11	144	7
TAP	11	168	6
HLD	11	192	2	48
TAP	11	240	3
TAP	11	264	2
TAP	11	312	1
TAP	11	336	0
TAP	11	360	1
HLD	12	0	7	48
TAP	12	48	0
TAP	12	72	7
TAP	12	120	6
TAP	12	144	3
TAP	12	168	4
STR	12	192	1
SI_	12	192	1	96	48	5
STR	12	240	7
SI_	12	240	7	96	48	3
HLD	13	0	1	48
TAP	13	48	0
TAP	13	72	1
TAP	13	120	2
TAP	13	144	3
TAP	13	168	2
HLD	13	192	6	48
TAP	13	240	7
TAP	13	264	6
TAP	13	312	5
TAP	13	336	4
TAP	13	360	5
HLD	14	0	3	48
TAP	14	48	4
TAP	14	72	3
TAP	14	120	1
TAP	14	144	5
TAP	14	168	3
STR	14	192	7
SI_	14	192	7	96	48	3
STR	14	240	0
SI_	14	240	0	96	48	4
HLD	15	0	6	48
TAP	15	48	7
TAP	15	72	6
TAP	15	120	5
TAP	15	144	4
TAP	15	168	5
HLD	15	192	1	48
TAP	15	240	0
TAP	15	264	1
TAP	15	312	2
TAP	15	336	3
TAP	15	360	2
HLD	16	0	4	48
TAP	16	48	3
TAP	16	72	4
TAP	16	120	6
TAP	16	144	3
TAP	16	168	4
BRK	16	192	1
BRK	16	224	2
BRK	16	256	3
BRK	16	288	4
BRK	16	320	5
BRK	16	352	6
TAP	17	0	0
TAP	17	0	7
TAP	17	48	0
TAP	17	48	1
TAP	17	96	1
TAP	17	96	2
TAP	17	144	2
TAP	17	144	3
TAP	17	192	3
HLD	17	192	4	96
TAP	17	288	5
TAP	17	336	6
STR	18	0	7
SCR	18	0	7	96	72	3
STR	18	96	7
SCL	18	96	7	96	72	3
TAP	18	192	0
TAP	18	240	1
TAP	18	288	2
TAP	18	336	3
TAP	19	0	0
TAP	19	0	7
TAP	19	48	6
TAP	19	48	7
TAP	19	96	5
TAP	19	96	6
TAP	19	144	4
TAP	19	144	5
TAP	19	192	3
TAP	19	192	4
TAP	19	288	1
TAP	19	288	2
TAP	19	336	5
TAP	19	336	6
STR	20	0	3
SUR	20	0	3	96	96	4
TAP	20	0	4
TAP	20	96	3
STR	20	96	4
SCR	20	96	4	96	144	3
TAP	21	0	3
TAP	21	0	4
TAP	21	48	4
TAP	21	48	5
TAP	21	96	5
TAP	21	96	6
TAP	21	144	6
TAP	21	144	7
HLD	21	192	0	96
TAP	21	192	7
TAP	21	288	1
TAP	21	336	2
STR	22	0	3
SCR	22	0	3	96	72	7
STR	22	96	3
SCL	22	96	3	96	72	7
TAP	22	192	4
TAP	22	240	5
TAP	22	288	6
TAP	22	336	7
TAP	23	0	3
TAP	23	0	4
TAP	23	48	2
TAP	23	48	3
TAP	23	96	1
TAP	23	96	2
TAP	23	144	0
TAP	23	144	1
TAP	23	192	0
TAP	23	192	7
STR	23	288	7
SI_	23	288	7	96	48	3
TAP	23	336	7
STR	24	0	1
SI_	24	0	1	96	48	5
TAP	24	0	7
TAP	24	96	1
TAP	24	96	7
BRK	24	192	6
BRK	24	224	5
BRK	24	256	4
BRK	24	288	3
BRK	24	320	2
BRK	24	352	1
TAP	25	0	0
TAP	25	0	7
TAP	25	48	0
TAP	25	48	6
TAP	25	96	0
TAP	25	96	5
TAP	25	144	0
TAP	25	144	4
STR	25	192	3
SI_	25	192	3	96	48	7
TAP	25	192	7
STR	25	288	7
SI_	25	288	7	96	48	3
TAP	25	336	1
STR	26	0	3
SI_	26	0	3	96	48	7
STR	26	96	7
SI_	26	96	7	96	48	3
STR	26	192	3
SI_	26	192	3	96	48	7
TAP	26	240	2
TAP	26	288	1
TAP	26	336	0
TAP	27	0	0
TAP	27	0	7
TAP	27	48	1
TAP	27	48	7
TAP	27	96	2
TAP	27	96	7
TAP	27	144	3
TAP	27	144	7
STR	27	192	0
SUL	27	192	0	96	48	4
STR	27	192	4
SUL	27	192	4	96	48	0
TAP	27	288	0
TAP	27	288	4
STR	28	0	5
SUL	28	0	5	96	72	1
TAP	28	48	5
STR	28	96	1
SUL	28	96	1	96	72	5
TAP	28	144	1
STR	28	192	5
SUL	28	192	5	96	72	1
TAP	28	240	5
STR	28	288	1
SUL	28	288	1	96	72	5
TAP	28	336	1
TAP	29	0	3
TAP	29	48	2
TAP	29	96	1
TAP	29	144	0
STR	29	192	3
SCR	29	192	3	96	96	7
TAP	29	192	7
STR	29	288	7
SCR	29	288	7	96	96	3
STR	30	0	3
SCR	30	0	3	96	96	7
STR	30	96	7
SUR	30	96	7	96	144	0
TAP	30	192	5
TAP	30	240	4
TAP	30	288	3
TAP	30	336	2
TAP	31	0	0
TAP	31	0	1
TAP	31	48	6
TAP	31	48	7
TAP	31	96	4
TAP	31	96	5
TAP	31	144	2
TAP	31	144	3
HLD	31	192	1	96
STR	31	288	3
SI_	31	288	3	96	36	7
TAP	31	336	3
BRK	32	0	3
STR	32	0	5
SI_	32	0	5	96	36	0
STR	32	96	2
SI_	32	96	2	96	36	7
BRK	32	96	5
BRK	32	192	2
STR	32	192	4
SI_	32	192	4	96	36	0
BRK	32	288	4
STR	33	0	0
SUR	33	0	0	96	96	2
TAP	33	48	7
TAP	33	96	6
TAP	33	144	5
TAP	33	192	4
TAP	33	288	3
TAP	33	336	4
STR	34	0	5
SUL	34	0	5	96	96	3
TAP	34	48	6
TAP	34	96	7
TAP	34	144	0
TAP	34	192	1
TAP	34	288	6
TAP	34	336	5
STR	35	0	4
SUR	35	0	4	96	96	6
TAP	35	48	3
TAP	35	96	2
TAP	35	144	1
TAP	35	192	0
TAP	35	288	7
TAP	35	336	0
STR	36	0	1
SUL	36	0	1	96	96	7
TAP	36	48	2
TAP	36	96	3
TAP	36	144	4
TAP	36	192	5
TAP	36	288	4
TAP	36	336	5
STR	37	0	6
SUR	37	0	6	96	96	0
TAP	37	48	7
STR	37	96	0
SI_	37	96	0	96	48	5
TAP	37	144	1
TAP	37	192	2
TAP	37	288	3
TAP	37	336	2
STR	38	0	1
SUL	38	0	1	96	96	7
TAP	38	48	0
STR	38	96	7
SI_	38	96	7	96	48	2
TAP	38	144	6
TAP	38	192	5
TAP	38	288	0
TAP	38	336	1
STR	39	0	2
SUR	39	0	2	96	96	4
TAP	39	48	3
STR	39	96	4
SI_	39	96	4	96	48	1
TAP	39	144	5
TAP	39	192	6
TAP	39	288	7
TAP	39	336	6
STR	40	0	5
SUL	40	0	5	96	96	3
TAP	40	48	4
STR	40	96	3
SI_	40	96	3	96	48	6
TAP	40	144	2
TAP	40	192	1
STR	40	288	0
SI_	40	288	0	96	36	5
TAP	41	0	0
STR	41	0	5
SI_	41	0	5	96	36	2
STR	41	96	2
SI_	41	96	2	96	36	7
TAP	41	96	5
TAP	41	192	2
TAP	41	192	7
STR	41	288	6
SI_	41	288	6	96	36	3
TAP	41	288	7
STR	42	0	3
SI_	42	0	3	96	36	0
TAP	42	0	6
STR	42	96	0
SI_	42	96	0	96	36	5
TAP	42	96	3
TAP	42	192	0
TAP	42	192	5
STR	42	288	2
SI_	42	288	2	96	36	7
TAP	42	288	5
TAP	43	0	2
STR	43	0	7
SI_	43	0	7	96	36	4
STR	43	96	4
SI_	43	96	4	96	36	1
TAP	43	96	7
TAP	43	192	1
TAP	43	192	4
TAP	43	288	1
STR	43	288	7
SI_	43	288	7	96	36	2
STR	44	0	2
SI_	44	0	2	96	36	5
TAP	44	0	7
TAP	44	96	2
STR	44	96	5
SI_	44	96	5	96	36	0
TAP	44	192	0
TAP	44	192	5
STR	44	288	0
SI_	44	288	0	96	48	5
TAP	44	288	7
TAP	45	0	0
STR	45	0	6
SI_	45	0	6	96	48	3
STR	45	96	1
SI_	45	96	1	96	48	4
TAP	45	96	6
TAP	45	192	1
STR	45	192	7
SI_	45	192	7	96	48	2
STR	45	288	0
SI_	45	288	0	96	48	3
TAP	45	288	7
TAP	46	0	0
STR	46	0	4
SI_	46	0	4	96	48	7
STR	46	96	2
SI_	46	96	2	96	48	6
TAP	46	96	4
TAP	46	192	2
TAP	46	192	6
STR	46	288	0
SI_	46	288	0	96	48	3
TAP	46	288	6
TAP	47	0	0
STR	47	0	6
SI_	47	0	6	96	48	1
STR	47	96	2
SI_	47	96	2	96	48	5
TAP	47	96	6
TAP	47	192	2
STR	47	192	4
SI_	47	192	4	96	48	7
STR	47	288	1
SI_	47	288	1	96	48	5
TAP	47	288	4
TAP	48	0	1
STR	48	0	7
SI_	48	0	7	96	48	3
TAP	48	96	3
TAP	48	96	7
BRK	48	192	2
BRK	48	224	1
BRK	48	256	0
BRK	48	288	7
BRK	48	320	6
BRK	48	352	5
HLD	49	0	4	384
STR	49	96	5
SI_	49	96	5	96	48	1
TAP	49	192	5
TAP	49	288	2
HLD	50	0	3	384
STR	50	96	2
SI_	50	96	2	96	48	6
TAP	50	192	2
TAP	50	288	5
HLD	51	0	7	384
STR	51	96	6
SI_	51	96	6	96	48	2
TAP	51	192	6
TAP	51	288	1
HLD	52	0	0	384
STR	52	96	1
SI_	52	96	1	96	48	5
TAP	52	192	1
TAP	52	288	6
HLD	53	0	5	384
STR	53	96	4
SI_	53	96	4	96	48	7
TAP	53	192	4
TAP	53	288	0
HLD	54	0	2	384
STR	54	96	3
SI_	54	96	3	96	48	0
TAP	54	192	3
TAP	54	288	7
HLD	55	0	6	384
STR	55	96	5
SUR	55	96	5	96	48	2
TAP	55	192	5
TAP	55	288	3
TAP	56	0	1
STR	56	96	0
SUL	56	96	0	96	72	3
STR	56	96	7
SUR	56	96	7	96	72	4
TAP	56	288	5
TAP	56	336	6
STR	57	0	7
SV_	57	0	7	96	48	4
STR	57	48	7
SV_	57	48	7	96	48	2
STR	57	96	7
SI_	57	96	7	96	48	3
TAP	57	288	2
TAP	57	336	1
STR	58	0	0
SV_	58	0	0	96	48	3
STR	58	48	0
SV_	58	48	0	96	48	5
STR	58	96	0
SI_	58	96	0	96	48	4
TAP	58	288	5
TAP	58	336	6
STR	59	0	7
SV_	59	0	7	96	48	2
STR	59	48	7
SUL	59	48	7	96	48	3
STR	59	96	7
SCL	59	96	7	96	48	4
TAP	59	288	2
TAP	59	336	1
STR	60	0	0
SV_	60	0	0	96	48	5
STR	60	48	0
SUR	60	48	0	96	48	4
STR	60	96	0
SCR	60	96	0	96	48	3
TAP	60	288	6
TAP	60	336	7
TAP	61	0	0
TAP	61	0	1
TAP	61	48	2
TAP	61	48	7
TAP	61	96	3
STR	61	96	6
SCR	61	96	6	96	72	3
TAP	61	144	4
TAP	61	144	5
TAP	61	288	1
TAP	61	336	0
TAP	62	0	6
TAP	62	0	7
TAP	62	48	0
TAP	62	48	5
STR	62	96	1
SCL	62	96	1	96	72	4
TAP	62	96	4
TAP	62	144	2
TAP	62	144	3
TAP	62	288	5
TAP	62	336	6
TAP	63	0	3
TAP	63	0	7
TAP	63	48	2
TAP	63	48	6
TAP	63	96	1
TAP	63	96	5
TAP	63	144	0
TAP	63	144	4
STR	63	192	3
SCR	63	192	3	96	48	7
STR	63	192	7
SCR	63	192	7	96	48	3
STR	63	288	7
SSR	63	288	7	96	144	3
BRK	64	192	3
BRK	64	192	4
BRK	64	288	0
BRK	64	288	7
HLD	65	0	2	48
TAP	65	48	3
TAP	65	72	1
TAP	65	120	1
TAP	65	144	0
TAP	65	168	1
HLD	65	192	5	48
TAP	65	240	4
TAP	65	264	6
TAP	65	312	6
TAP	65	336	7
TAP	65	360	6
HLD	66	0	0	48
TAP	66	48	7
TAP	66	72	1
TAP	66	120	1
TAP	66	144	0
TAP	66	168	1
STR	66	192	6
SI_	66	192	6	96	48	2
STR	66	240	0
SI_	66	240	0	96	48	4
TAP	66	288	6
TAP	66	336	0
HLD	67	0	5	48
TAP	67	48	4
TAP	67	72	6
TAP	67	120	6
TAP	67	144	7
TAP	67	168	6
HLD	67	192	2	48
TAP	67	240	3
TAP	67	264	1
TAP	67	312	1
TAP	67	336	0
TAP	67	360	1
HLD	68	0	7	48
TAP	68	48	0
TAP	68	72	6
TAP	68	120	6
TAP	68	144	7
TAP	68	168	6
STR	68	192	1
SI_	68	192	1	96	48	5
STR	68	240	7
SI_	68	240	7	96	48	3
TAP	68	288	1
TAP	68	336	7
HLD	69	0	1	48
TAP	69	48	0
TAP	69	72	2
TAP	69	120	5
TAP	69	144	4
TAP	69	168	5
HLD	69	192	2	48
TAP	69	240	3
TAP	69	264	1
TAP	69	312	6
TAP	69	336	7
TAP	69	360	6
HLD	70	0	3	48
TAP	70	48	4
TAP	70	72	1
TAP	70	120	1
TAP	70	144	0
TAP	70	168	1
STR	70	192	6
SI_	70	192	6	96	48	2
STR	70	240	1
SI_	70	240	1	96	48	5
TAP	70	288	6
TAP	70	336	1
HLD	71	0	6	48
TAP	71	48	7
TAP	71	72	5
TAP	71	120	2
TAP	71	144	3
TAP	71	168	2
HLD	71	192	5	48
TAP	71	240	4
TAP	71	264	6
TAP	71	312	1
TAP	71	336	0
TAP	71	360	1
HLD	72	0	4	48
TAP	72	48	3
TAP	72	72	6
TAP	72	120	6
TAP	72	144	7
TAP	72	168	6
BRK	72	192	3
BRK	72	224	5
BRK	72	256	7
BRK	72	288	1
BRK	72	320	3
BRK	72	352	5
BRK	73	0	0
BRK	73	0	7

T_REC_TAP	401
T_REC_BRK	35
T_REC_XTP	0
T_REC_HLD	34
T_REC_XHO	0
T_REC_STR	114
T_REC_BST	0
T_REC_XST	0
T_REC_TTP	0
T_REC_THO	0
T_REC_SLD	114
T_REC_ALL	698
T_NUM_TAP	515
T_NUM_BRK	35
T_NUM_HLD	34
T_NUM_SLD	114
T_NUM_ALL	698
T_JUDGE_TAP	550
T_JUDGE_HLD	86
T_JUDGE_SLD	114
T_JUDGE_ALL	750
TTM_EACHPAIRS	99
TTM_SCR_TAP	257500
TTM_SCR_BRK	91000
TTM_SCR_HLD	34000
TTM_SCR_SLD	171000
TTM_SCR_ALL	553500
TTM_SCR_S	533500
TTM_SCR_SS	550000
TTM_RAT_ACV	10063

