VERSION	0.00.00	1.03.00
FES_MODE	0
BPM_DEF	138.000	138.000	138.000	138.000
MET_DEF	4	4
RESOLUTION	384
CLK_DEF	384
COMPATIBLE_CODE	MA2

BPM	0	0	138.000
MET	0	0	4	4

TAP	1	0	1
TAP	1	96	0
TAP	1	192	1
TAP	1	288	6
TAP	1	312	7
TAP	1	336	6
TAP	1	360	7
TAP	2	0	6
TAP	2	96	7
TAP	2	192	6
TAP	2	288	0
TAP	2	336	0
TAP	3	0	5
TAP	3	96	4
TAP	3	192	5
TAP	3	288	2
TAP	3	312	3
TAP	3	336	2
TAP	3	360	3
TAP	4	0	2
TAP	4	96	3
TAP	4	192	2
TAP	4	288	7
TAP	4	336	0
TAP	5	0	0
TAP	5	0	6
TAP	5	96	7
TAP	5	192	6
TAP	5	288	5
TAP	5	312	4
TAP	5	336	5
TAP	5	360	4
TAP	6	0	5
TAP	6	96	4
TAP	6	192	5
TAP	6	288	0
TAP	6	288	1
TAP	6	336	2
TAP	6	336	7
TAP	7	0	0
TAP	7	96	6
TAP	7	192	4
TAP	7	288	2
TAP	7	312	3
TAP	7	336	2
TAP	7	360	3
TAP	8	0	2
TAP	8	96	3
TAP	8	192	5
BRK	8	288	7
TAP	9	0	2
TAP	9	48	3
TAP	9	72	2
TAP	9	120	3
TAP	9	144	2
TAP	9	168	4
TAP	9	192	1
TAP	9	240	0
TAP	9	264	1
TAP	9	312	0
TAP	9	336	1
TAP	9	360	7
TAP	10	0	4
TAP	10	48	5
TAP	10	72	4
TAP	10	120	5
TAP	10	144	4
TAP	10	168	6
TAP	10	192	7
TAP	10	240	6
TAP	10	264	7
TAP	10	288	6
TAP	10	336	7
TAP	10	360	6
TAP	11	0	1
TAP	11	48	0
TAP	11	72	1
TAP	11	120	6
TAP	11	144	7
TAP	11	168	5
TAP	11	192	2
TAP	11	240	3
TAP	11	264	2
TAP	11	312	5
TAP	11	336	4
TAP	11	360	6
TAP	12	0	7
TAP	12	48	6
TAP	12	72	7
TAP	12	120	4
TAP	12	144	3
TAP	12	168	5
TAP	12	192	1
TAP	12	240	0
TAP	12	264	1
TAP	12	288	7
TAP	12	336	0
TAP	12	360	7
TAP	13	0	1
TAP	13	48	4
TAP	13	72	3
TAP	13	120	6
TAP	13	144	7
TAP	13	168	5
TAP	13	192	0
TAP	13	240	5
TAP	13	264	4
TAP	13	312	3
TAP	13	336	2
TAP	13	360	4
TAP	14	0	1
TAP	14	48	4
TAP	14	72	3
TAP	14	120	6
TAP	14	144	7
TAP	14	168	5
TAP	14	192	0
TAP	14	240	3
TAP	14	264	2
TAP	14	288	3
TAP	14	336	1
TAP	14	360	0
TAP	15	0	3
TAP	15	48	5
TAP	15	72	4
TAP	15	120	6
TAP	15	144	7
TAP	15	168	5
TAP	15	192	2
TAP	15	240	3
TAP	15	264	2
TAP	15	312	7
TAP	15	336	0
TAP	15	360	6
TAP	16	0	3
TAP	16	48	6
TAP	16	72	7
TAP	16	120	4
TAP	16	144	3
TAP	16	168	4
BRK	16	192	1
BRK	16	224	0
BRK	16	256	1
BRK	16	288	6
BRK	16	321	7
BRK	16	353	6
TAP	17	0	2
TAP	17	48	3
TAP	17	96	1
TAP	17	96	4
TAP	17	144	2
TAP	17	144	5
TAP	17	192	3
TAP	17	192	6
HLD	17	288	0	48
HLD	17	288	4	48
HLD	18	0	1	48
HLD	18	0	5	48
HLD	18	96	2	48
HLD	18	96	6	48
HLD	18	192	3	96
HLD	18	192	7	96
TAP	19	0	6
TAP	19	48	7
TAP	19	96	0
TAP	19	96	5
TAP	19	144	1
TAP	19	144	6
TAP	19	192	2
TAP	19	192	7
STR	19	288	0
SCR	19	288	0	96	96	3
STR	20	0	3
SCR	20	0	3	96	96	6
STR	20	96	6
SCR	20	96	6	96	96	1
STR	20	192	1
SCR	20	192	1	96	96	4
TAP	21	0	2
TAP	21	48	1
TAP	21	96	0
TAP	21	144	7
STR	21	192	6
SI_	21	192	6	96	96	1
TAP	21	288	4
TAP	21	336	3
TAP	22	0	2
TAP	22	96	0
TAP	22	192	2
TAP	22	240	3
TAP	22	288	4
TAP	22	336	5
TAP	23	0	6
TAP	23	48	6
TAP	23	96	1
TAP	23	96	7
TAP	23	144	1
TAP	23	144	7
TAP	23	192	0
TAP	23	192	7
TAP	23	288	3
TAP	23	288	7
TAP	23	336	0
TAP	23	336	4
HLD	24	0	1	96
HLD	24	0	5	96
STR	24	192	3
SI_	24	192	3	96	24	6
STR	24	192	7
SI_	24	192	7	96	24	2
TAP	25	0	2
TAP	25	0	6
TAP	25	48	1
TAP	25	48	5
TAP	25	96	0
TAP	25	96	4
TAP	25	144	3
TAP	25	144	7
TAP	25	192	0
TAP	25	192	4
TAP	25	288	0
TAP	25	288	4
TAP	26	0	1
TAP	26	0	5
STR	26	96	1
SI_	26	96	1	96	24	4
STR	26	192	5
SI_	26	192	5	96	24	0
HLD	27	0	3	48
HLD	27	0	7	48
HLD	27	96	2	48
HLD	27	96	6	48
HLD	27	192	1	48
HLD	27	192	5	48
TAP	27	288	0
TAP	27	288	4
TAP	28	0	4
TAP	28	48	3
TAP	28	96	2
TAP	28	144	1
TAP	28	192	3
TAP	28	240	4
TAP	28	288	5
TAP	28	336	6
TAP	29	0	2
TAP	29	0	6
TAP	29	48	1
TAP	29	48	5
TAP	29	96	0
TAP	29	96	4
TAP	29	144	3
TAP	29	144	7
TAP	29	192	0
TAP	29	192	4
TAP	29	240	1
TAP	29	240	5
TAP	29	288	2
TAP	29	288	6
TAP	29	336	3
TAP	29	336	7
STR	30	0	6
SI_	30	0	6	96	24	1
STR	30	192	2
SI_	30	192	2	96	24	5
TAP	31	0	5
TAP	31	48	5
TAP	31	96	6
TAP	31	144	6
TAP	31	192	1
HLD	31	192	7	144
TAP	31	240	1
TAP	31	288	0
TAP	31	336	0
TAP	32	0	6
TAP	32	96	1
STR	32	192	7
SI_	32	192	7	96	24	4
BRK	32	288	1
TAP	33	0	0
TAP	33	0	4
TAP	33	48	1
TAP	33	48	5
STR	33	96	2
SCL	33	96	2	96	48	7
STR	33	96	6
SCL	33	96	6	96	48	3
TAP	33	144	2
TAP	33	144	6
TAP	33	288	3
TAP	33	288	7
TAP	33	336	0
TAP	33	336	4
TAP	34	0	1
TAP	34	0	5
TAP	34	48	2
TAP	34	48	6
TAP	34	96	3
TAP	34	96	7
TAP	34	144	1
TAP	34	144	5
TAP	34	192	0
TAP	34	192	4
TAP	34	288	1
TAP	34	336	0
TAP	35	0	7
TAP	35	48	6
TAP	35	48	7
TAP	35	96	0
TAP	35	96	5
TAP	35	144	1
TAP	35	144	4
TAP	35	192	2
TAP	35	192	3
TAP	35	288	6
TAP	35	336	7
TAP	36	0	0
TAP	36	48	0
TAP	36	48	1
TAP	36	96	2
TAP	36	96	7
TAP	36	144	3
TAP	36	144	6
BRK	36	192	4
BRK	36	192	5
HLD	36	288	0	96
TAP	36	336	1
HLD	37	0	2	96
TAP	37	48	3
HLD	37	96	4	96
TAP	37	144	5
HLD	37	192	6	96
HLD	37	288	7	96
TAP	37	336	6
HLD	38	0	5	96
TAP	38	48	4
HLD	38	96	3	96
TAP	38	144	2
HLD	38	192	1	96
HLD	38	288	7	48
HLD	38	336	4	48
HLD	39	0	6	48
HLD	39	48	5	48
HLD	39	96	0	48
HLD	39	144	7	48
HLD	39	192	0	96
HLD	39	288	3	48
HLD	39	336	0	48
HLD	40	0	2	48
HLD	40	48	1	48
HLD	40	96	4	48
TAP	40	144	3
BRK	40	192	1
BRK	40	224	0
BRK	40	256	1
BRK	40	288	7
BRK	40	320	1
BRK	40	352	6
STR	41	0	1
SI_	41	0	1	96	96	6
STR	41	96	6
SI_	41	96	6	96	96	2
STR	41	192	2
SI_	41	192	2	96	96	5
STR	41	288	5
SI_	41	288	5	96	96	0
STR	42	0	0
SI_	42	0	0	96	96	4
STR	42	96	4
SI_	42	96	4	96	96	7
STR	42	192	7
SI_	42	192	7	96	96	3
STR	43	0	1
SCL	43	0	1	96	96	6
STR	43	96	6
SCL	43	96	6	96	96	3
STR	43	192	3
SCL	43	192	3	96	96	0
STR	43	288	0
SI_	43	288	0	96	96	4
STR	44	0	4
SCR	44	0	4	96	96	7
STR	44	96	7
SCR	44	96	7	96	96	2
STR	44	192	2
SI_	44	192	2	96	48	5
TAP	45	0	7
TAP	45	96	5
TAP	45	96	6
TAP	45	192	1
TAP	45	192	2
TAP	45	288	0
TAP	45	288	2
TAP	46	0	4
TAP	46	0	5
TAP	46	96	2
TAP	46	96	3
TAP	46	192	5
TAP	46	192	6
TAP	46	288	0
TAP	46	288	7
TAP	46	336	1
TAP	46	336	2
TAP	47	0	2
TAP	47	0	3
TAP	47	48	2
TAP	47	48	3
TAP	47	96	0
TAP	47	96	1
TAP	47	144	0
TAP	47	144	1
TAP	47	192	6
TAP	47	192	7
TAP	47	240	6
TAP	47	240	7
TAP	47	288	4
TAP	47	288	5
TAP	47	336	4
TAP	47	336	5
TAP	48	0	2
TAP	48	0	3
TAP	48	48	2
TAP	48	48	3
TAP	48	96	0
TAP	48	96	1
TAP	48	144	0
TAP	48	144	1
BRK	48	192	6
BRK	48	224	7
BRK	48	256	6
BRK	48	288	0
BRK	48	320	6
BRK	48	352	1
HLD	49	0	0	192
HLD	49	192	5	96
HLD	49	288	2	96
TAP	50	0	1
TAP	50	96	0
HLD	50	192	7	96
HLD	50	288	4	96
HLD	51	0	0	192
HLD	51	192	2	96
HLD	51	288	6	96
TAP	52	0	5
TAP	52	96	3
TAP	52	192	7
BRK	52	240	0
HLD	53	0	4	192
HLD	53	192	7	96
HLD	53	288	3	96
TAP	54	0	1
TAP	54	96	1
HLD	54	192	7	96
HLD	54	288	6	96
HLD	55	0	5	192
HLD	55	192	3	96
HLD	55	288	2	96
TAP	56	0	1
TAP	56	96	0
TAP	56	192	7
BRK	56	240	0
HLD	57	0	1	192
HLD	57	192	5	96
HLD	57	288	2	96
STR	58	0	1
SCL	58	0	1	96	48	6
STR	58	96	3
SI_	58	96	3	96	48	0
HLD	58	288	7	96
HLD	59	0	0	192
HLD	59	192	2	96
HLD	59	288	6	96
STR	60	0	5
SI_	60	0	5	96	48	0
STR	60	96	7
SCR	60	96	7	96	48	2
HLD	61	0	4	192
HLD	61	192	7	96
HLD	61	288	3	96
STR	62	0	1
SI_	62	0	1	96	48	4
STR	62	96	0
SCL	62	96	0	96	48	5
HLD	62	288	3	96
HLD	63	0	5	192
HLD	63	192	1	96
HLD	63	288	0	96
TAP	64	0	1
TAP	64	96	0
BRK	64	192	1
BRK	64	192	6
BRK	64	288	0
BRK	64	288	7
TAP	65	0	2
TAP	65	48	3
TAP	65	72	2
TAP	65	120	3
TAP	65	144	2
TAP	65	168	4
TAP	65	192	1
TAP	65	240	0
TAP	65	264	1
TAP	65	312	0
TAP	65	336	1
TAP	65	360	7
TAP	66	0	4
TAP	66	48	5
TAP	66	72	4
TAP	66	120	5
TAP	66	144	4
TAP	66	168	6
TAP	66	192	7
TAP	66	240	6
TAP	66	264	7
TAP	66	288	6
TAP	66	336	7
TAP	66	360	6
TAP	67	0	1
TAP	67	48	0
TAP	67	72	1
TAP	67	120	6
TAP	67	144	7
TAP	67	168	5
TAP	67	192	2
TAP	67	240	3
TAP	67	264	2
TAP	67	312	5
TAP	67	336	4
TAP	67	360	6
TAP	68	0	7
TAP	68	48	6
TAP	68	72	7
TAP	68	120	4
TAP	68	144	3
TAP	68	168	5
TAP	68	192	1
TAP	68	240	0
TAP	68	264	1
TAP	68	288	7
TAP	68	336	0
TAP	68	360	7
TAP	69	0	1
TAP	69	48	4
TAP	69	72	3
TAP	69	120	6
TAP	69	144	7
TAP	69	168	5
TAP	69	192	0
TAP	69	240	5
TAP	69	264	4
TAP	69	312	3
TAP	69	336	2
TAP	69	360	4
TAP	70	0	1
TAP	70	48	4
TAP	70	72	3
TAP	70	120	6
TAP	70	144	7
TAP	70	168	5
TAP	70	192	0
TAP	70	240	3
TAP	70	264	2
TAP	70	288	3
TAP	70	336	1
TAP	70	360	0
TAP	71	0	3
TAP	71	48	5
TAP	71	72	4
TAP	71	120	6
TAP	71	144	7
TAP	71	168	5
TAP	71	192	2
TAP	71	240	3
TAP	71	264	2
TAP	71	312	7
TAP	71	336	0
TAP	71	360	6
TAP	72	0	3
TAP	72	48	6
TAP	72	72	7
TAP	72	120	4
TAP	72	144	3
TAP	72	168	4
BRK	72	192	1
BRK	72	224	2
BRK	72	256	3
BRK	72	288	4
BRK	72	320	5
BRK	72	352	6
BRK	73	0	0
BRK	73	0	7

T_REC_TAP	419
T_REC_BRK	36
T_REC_XTP	0
T_REC_HLD	67
T_REC_XHO	0
T_REC_STR	34
T_REC_BST	0
T_REC_XST	0
T_REC_TTP	0
T_REC_THO	0
T_REC_SLD	34
T_REC_ALL	590
T_NUM_TAP	453
T_NUM_BRK	36
T_NUM_HLD	67
T_NUM_SLD	34
T_NUM_ALL	590
T_JUDGE_TAP	489
T_JUDGE_HLD	128
T_JUDGE_SLD	34
T_JUDGE_ALL	651
TTM_EACHPAIRS	82
TTM_SCR_TAP	226500
TTM_SCR_BRK	93600
TTM_SCR_HLD	67000
TTM_SCR_SLD	51000
TTM_SCR_ALL	438100
TTM_SCR_S	421500
TTM_SCR_SS	434500
TTM_RAT_ACV	10082

