VERSION	0.00.00	1.03.00
FES_MODE	0
BPM_DEF	138.000	138.000	138.000	138.000
MET_DEF	4	4
RESOLUTION	384
CLK_DEF	384
COMPATIBLE_CODE	MA2

BPM	0	0	138.000
MET	0	0	4	4

TAP	1	0	3
TAP	1	96	3
TAP	1	192	3
TAP	1	288	3
TAP	1	312	4
TAP	1	336	3
TAP	1	360	4
TAP	2	0	3
TAP	2	96	3
TAP	2	192	3
TAP	2	288	3
TAP	2	336	3
TAP	3	0	3
TAP	3	96	3
TAP	3	192	3
TAP	3	288	3
TAP	3	312	4
TAP	3	336	3
TAP	3	360	4
TAP	4	0	3
TAP	4	96	3
TAP	4	192	3
TAP	4	288	3
TAP	4	336	4
TAP	5	0	3
TAP	5	96	4
TAP	5	192	3
TAP	5	288	4
TAP	5	312	3
TAP	5	336	4
TAP	5	360	3
TAP	6	0	4
TAP	6	96	3
TAP	6	192	4
TAP	6	288	3
TAP	6	336	3
TAP	7	0	3
TAP	7	96	4
TAP	7	192	3
TAP	7	288	4
TAP	7	312	3
TAP	7	336	4
TAP	7	360	3
TAP	8	0	4
TAP	8	96	3
TAP	8	192	4
BRK	8	288	2
BRK	8	288	3
TAP	9	0	4
TAP	9	48	5
TAP	9	96	3
TAP	9	144	4
TAP	9	192	3
TAP	9	240	2
TAP	9	288	4
TAP	9	336	3
TAP	10	0	4
TAP	10	48	5
TAP	10	96	3
TAP	10	144	4
TAP	10	192	3
TAP	10	240	2
TAP	10	288	1
TAP	10	336	2
TAP	11	0	3
TAP	11	48	2
TAP	11	96	4
TAP	11	144	3
TAP	11	192	4
TAP	11	240	5
TAP	11	288	3
TAP	11	336	4
TAP	12	0	3
TAP	12	48	2
TAP	12	96	4
TAP	12	144	3
HLD	12	192	6	96
HLD	12	288	1	96
TAP	13	0	4
TAP	13	48	2
TAP	13	96	3
TAP	13	144	5
TAP	13	192	4
TAP	13	240	2
TAP	13	288	3
TAP	13	336	5
TAP	14	0	4
TAP	14	48	2
TAP	14	96	3
TAP	14	144	5
TAP	14	192	4
TAP	14	240	2
TAP	14	288	7
TAP	14	336	5
TAP	15	0	3
TAP	15	48	5
TAP	15	96	4
TAP	15	144	2
TAP	15	192	3
TAP	15	240	5
TAP	15	288	4
TAP	15	336	2
TAP	16	0	3
TAP	16	48	5
TAP	16	96	4
TAP	16	144	2
STR	16	192	3
SI_	16	192	3	96	48	6
TAP	16	224	3
TAP	16	256	3
TAP	17	0	7
TAP	17	48	0
TAP	17	96	1
TAP	17	144	2
HLD	17	192	3	96
TAP	17	288	1
TAP	17	336	0
HLD	18	0	7	96
HLD	18	96	0	96
TAP	18	192	6
TAP	18	240	5
TAP	18	288	6
TAP	18	336	7
TAP	19	0	0
TAP	19	48	7
TAP	19	96	6
TAP	19	144	5
HLD	19	192	4	96
TAP	19	288	5
TAP	19	336	6
TAP	20	0	7
TAP	20	48	6
TAP	20	96	5
TAP	20	144	4
TAP	20	192	3
TAP	20	240	2
TAP	20	288	1
TAP	20	336	0
TAP	21	0	7
TAP	21	48	6
TAP	21	96	7
TAP	21	144	0
HLD	21	192	1	96
TAP	21	288	7
TAP	21	336	6
HLD	22	0	7	96
HLD	22	96	0	96
TAP	22	192	4
TAP	22	240	5
TAP	22	288	6
TAP	22	336	7
TAP	23	0	0
TAP	23	48	1
TAP	23	96	0
TAP	23	144	7
HLD	23	192	6	96
TAP	23	288	0
TAP	23	336	1
TAP	24	0	6
TAP	24	96	1
TAP	24	192	4
TAP	24	192	7
TAP	24	288	0
TAP	24	288	3
TAP	25	0	7
TAP	25	48	0
TAP	25	96	1
TAP	25	144	7
HLD	25	192	6	96
TAP	25	288	5
TAP	25	336	7
HLD	26	0	0	96
HLD	26	96	7	96
TAP	26	192	1
TAP	26	240	0
TAP	26	288	7
TAP	26	336	6
TAP	27	0	0
TAP	27	48	7
TAP	27	96	6
TAP	27	144	0
HLD	27	192	1	96
TAP	27	288	2
TAP	27	336	0
TAP	28	0	7
TAP	28	48	6
TAP	28	96	1
TAP	28	144	2
TAP	28	192	5
TAP	28	240	4
TAP	28	288	3
TAP	28	336	4
TAP	29	0	6
TAP	29	48	5
TAP	29	96	4
TAP	29	144	3
HLD	29	192	2	96
TAP	29	288	0
TAP	29	336	1
HLD	30	0	2	96
HLD	30	96	5	96
TAP	30	192	0
TAP	30	240	7
TAP	30	288	6
TAP	30	336	5
TAP	31	0	1
TAP	31	48	2
TAP	31	96	3
TAP	31	144	4
HLD	31	192	5	96
TAP	31	288	7
TAP	31	336	6
BRK	32	0	5
BRK	32	96	3
BRK	32	192	1
BRK	32	288	7
TAP	33	0	0
TAP	33	48	7
TAP	33	96	6
TAP	33	144	5
HLD	33	192	1	96
TAP	33	288	5
TAP	33	336	6
TAP	34	0	7
TAP	34	48	0
TAP	34	96	1
TAP	34	144	2
HLD	34	192	6	96
TAP	34	288	7
TAP	34	336	6
TAP	35	0	7
TAP	35	48	6
TAP	35	96	5
TAP	35	144	4
HLD	35	192	2	96
TAP	35	288	0
TAP	35	336	1
TAP	36	0	0
TAP	36	48	1
TAP	36	96	2
TAP	36	144	3
HLD	36	192	5	96
TAP	36	288	3
TAP	36	336	2
TAP	37	0	1
TAP	37	48	0
TAP	37	96	7
TAP	37	144	6
HLD	37	192	0	96
TAP	37	288	4
TAP	37	336	5
TAP	38	0	6
TAP	38	48	7
TAP	38	96	0
TAP	38	144	1
HLD	38	192	7	96
TAP	38	288	2
TAP	38	336	1
TAP	39	0	2
TAP	39	48	3
TAP	39	96	4
TAP	39	144	5
HLD	39	192	3	96
TAP	39	288	5
TAP	39	336	6
TAP	40	0	5
TAP	40	48	4
TAP	40	96	3
TAP	40	144	2
HLD	40	192	4	96
TAP	40	288	6
TAP	41	0	2
TAP	41	0	3
TAP	41	96	6
TAP	41	96	7
TAP	41	192	3
TAP	41	192	4
TAP	41	288	0
TAP	41	288	1
TAP	42	0	5
TAP	42	0	6
TAP	42	96	2
TAP	42	96	3
TAP	42	192	0
TAP	42	192	7
TAP	42	288	4
HLD	42	288	5	96
TAP	43	0	4
TAP	43	96	0
TAP	43	96	1
TAP	43	192	3
TAP	43	192	4
TAP	43	288	6
TAP	43	288	7
TAP	44	0	1
TAP	44	0	2
TAP	44	96	4
TAP	44	96	5
TAP	44	192	0
TAP	44	192	7
HLD	44	288	2	96
TAP	44	288	3
TAP	45	0	0
TAP	45	96	5
TAP	45	96	7
TAP	45	192	2
TAP	45	192	4
TAP	45	288	1
TAP	45	288	7
TAP	46	0	4
TAP	46	0	6
TAP	46	96	1
TAP	46	96	3
TAP	46	192	0
TAP	46	192	6
TAP	46	288	3
HLD	46	288	5	96
TAP	47	0	7
TAP	47	96	0
TAP	47	96	2
TAP	47	192	3
TAP	47	192	5
TAP	47	288	0
TAP	47	288	6
TAP	48	0	1
TAP	48	0	3
TAP	48	96	4
TAP	48	96	6
TAP	48	192	2
TAP	48	224	2
TAP	48	256	2
TAP	48	288	5
TAP	48	320	5
TAP	48	352	5
HLD	49	0	1	384
HLD	49	192	2	96
HLD	50	0	5	384
HLD	50	192	6	96
HLD	51	0	3	384
HLD	51	192	2	96
HLD	52	0	4	384
HLD	52	192	5	96
HLD	53	0	2	384
HLD	53	192	1	96
HLD	54	0	6	384
HLD	54	192	5	96
HLD	55	0	0	384
HLD	55	192	1	96
HLD	56	0	7	384
HLD	56	192	6	96
STR	57	0	1
SI_	57	0	1	96	96	4
STR	57	96	0
SI_	57	96	0	96	96	5
STR	58	0	6
SI_	58	0	6	96	96	1
STR	58	96	3
SI_	58	96	3	96	96	0
STR	59	0	7
SI_	59	0	7	96	96	2
STR	59	96	0
SCL	59	96	0	96	96	5
STR	60	0	1
SI_	60	0	1	96	96	4
STR	60	96	3
SI_	60	96	3	96	96	6
STR	61	0	4
SI_	61	0	4	96	96	7
STR	61	96	0
SI_	61	96	0	96	96	3
STR	62	0	1
SI_	62	0	1	96	96	5
STR	62	96	4
SCL	62	96	4	96	96	1
STR	63	0	7
SCR	63	0	7	96	96	2
STR	63	96	3
SCR	63	96	3	96	96	6
STR	64	0	7
SI_	64	0	7	96	96	3
BRK	64	192	5
BRK	64	288	1
TAP	65	0	3
TAP	65	48	6
TAP	65	96	5
TAP	65	144	0
TAP	65	192	4
TAP	65	240	1
TAP	65	288	2
TAP	65	336	7
TAP	66	0	3
TAP	66	48	6
TAP	66	96	5
TAP	66	144	0
TAP	66	192	4
TAP	66	240	2
TAP	66	288	7
TAP	66	336	0
TAP	67	0	4
TAP	67	48	1
TAP	67	96	2
TAP	67	144	7
TAP	67	192	3
TAP	67	240	6
TAP	67	288	5
TAP	67	336	0
TAP	68	0	4
TAP	68	48	1
TAP	68	96	2
TAP	68	144	7
HLD	68	192	0	96
HLD	68	288	4	96
TAP	69	0	3
TAP	69	48	6
TAP	69	96	5
TAP	69	144	0
TAP	69	192	4
TAP	69	240	1
TAP	69	288	2
TAP	69	336	7
TAP	70	0	3
TAP	70	48	6
TAP	70	96	5
TAP	70	144	0
TAP	70	192	4
TAP	70	240	2
TAP	70	288	7
TAP	70	336	0
TAP	71	0	4
TAP	71	48	1
TAP	71	96	2
TAP	71	144	7
TAP	71	192	3
TAP	71	240	6
TAP	71	288	5
TAP	71	336	0
TAP	72	0	4
TAP	72	48	1
TAP	72	96	2
TAP	72	144	7
TAP	72	192	5
TAP	72	224	0
TAP	72	256	6
TAP	72	288	2
TAP	72	320	7
TAP	72	352	1
STR	73	0	4
SI_	73	0	4	96	192	7

T_REC_TAP	359
T_REC_BRK	8
T_REC_XTP	0
T_REC_HLD	47
T_REC_XHO	0
T_REC_STR	17
T_REC_BST	0
T_REC_XST	0
T_REC_TTP	0
T_REC_THO	0
T_REC_SLD	17
T_REC_ALL	448
T_NUM_TAP	376
T_NUM_BRK	8
T_NUM_HLD	47
T_NUM_SLD	17
T_NUM_ALL	448
T_JUDGE_TAP	384
T_JUDGE_HLD	142
T_JUDGE_SLD	17
T_JUDGE_ALL	543
TTM_EACHPAIRS	30
TTM_SCR_TAP	188000
TTM_SCR_BRK	20800
TTM_SCR_HLD	47000
TTM_SCR_SLD	25500
TTM_SCR_ALL	281300
TTM_SCR_S	272100
TTM_SCR_SS	280500
TTM_RAT_ACV	10028

