VERSION	0.00.00	1.03.00
FES_MODE	0
BPM_DEF	138.000	138.000	138.000	138.000
MET_DEF	4	4
RESOLUTION	384
CLK_DEF	384
COMPATIBLE_CODE	MA2

BPM	0	0	138.000
MET	0	0	4	4

TAP	1	0	3
TAP	1	96	3
TAP	1	192	3
TAP	2	0	5
TAP	2	96	5
TAP	2	192	5
TAP	3	0	1
TAP	3	96	1
TAP	3	192	1
TAP	4	0	7
TAP	4	96	7
TAP	4	192	7
TAP	5	0	0
TAP	5	96	0
TAP	5	192	0
TAP	6	0	6
TAP	6	96	6
TAP	6	192	6
TAP	7	0	4
TAP	7	96	4
TAP	7	192	4
TAP	8	0	2
TAP	8	96	2
TAP	8	192	0
BRK	8	288	0
TAP	9	0	7
TAP	9	192	7
TAP	10	0	0
TAP	10	192	0
TAP	11	0	2
TAP	11	192	2
TAP	12	0	4
TAP	12	192	4
TAP	13	0	5
TAP	13	192	4
TAP	14	0	3
TAP	14	192	2
TAP	15	0	1
TAP	15	192	3
TAP	16	0	5
BRK	16	192	7
TAP	17	0	5
TAP	17	96	4
TAP	17	192	3
TAP	17	288	2
TAP	18	0	1
TAP	18	96	0
TAP	18	192	7
TAP	18	288	6
TAP	18	288	7
TAP	19	0	0
TAP	19	96	1
TAP	19	192	2
TAP	19	288	3
TAP	20	0	4
TAP	20	96	5
TAP	20	192	6
TAP	20	288	7
TAP	21	0	0
TAP	21	96	0
TAP	21	192	6
TAP	21	288	6
TAP	22	0	2
TAP	22	96	2
TAP	22	192	4
TAP	22	288	4
TAP	23	0	3
TAP	23	96	5
TAP	23	192	7
TAP	23	288	1
TAP	24	0	0
TAP	24	96	0
TAP	24	192	7
BRK	24	288	7
TAP	25	0	0
TAP	25	96	1
TAP	25	192	2
TAP	25	288	3
TAP	26	0	0
TAP	26	0	4
TAP	26	96	3
TAP	26	96	7
TAP	26	192	2
TAP	26	192	6
TAP	26	288	1
TAP	26	288	5
TAP	27	0	4
TAP	27	96	5
TAP	27	192	6
TAP	27	288	7
TAP	28	0	0
TAP	28	96	6
TAP	28	192	4
TAP	28	288	2
TAP	29	0	0
TAP	29	96	0
TAP	29	192	6
TAP	29	288	6
TAP	30	0	2
TAP	30	0	7
TAP	30	96	0
TAP	30	96	3
TAP	30	192	1
TAP	30	192	4
TAP	30	288	2
TAP	30	288	5
TAP	31	0	4
TAP	31	96	3
TAP	31	192	2
TAP	31	288	1
TAP	32	0	0
TAP	32	0	7
TAP	32	96	0
TAP	32	96	7
TAP	32	192	6
TAP	32	192	7
BRK	32	288	6
BRK	32	288	7
HLD	33	0	0	96
HLD	33	96	1	96
TAP	33	192	2
TAP	33	288	3
HLD	34	0	2	96
HLD	34	96	1	96
TAP	34	192	0
TAP	34	288	7
TAP	35	0	1
TAP	35	96	1
TAP	35	192	2
TAP	35	288	2
TAP	36	0	3
TAP	36	96	3
TAP	36	192	4
TAP	36	288	4
TAP	37	0	2
TAP	37	96	2
TAP	37	192	6
TAP	37	288	6
TAP	38	0	0
TAP	38	96	0
TAP	38	192	7
TAP	38	288	7
TAP	39	0	1
TAP	39	96	1
TAP	39	192	3
TAP	39	288	3
TAP	40	0	5
TAP	40	96	5
TAP	40	192	7
TAP	40	288	7
TAP	41	0	0
TAP	41	0	1
TAP	41	96	0
TAP	41	96	1
TAP	41	192	0
TAP	41	192	7
TAP	41	288	0
TAP	41	288	7
TAP	42	0	6
TAP	42	0	7
TAP	42	96	6
TAP	42	96	7
TAP	42	192	5
TAP	42	192	6
TAP	42	288	5
TAP	42	288	6
STR	43	0	4
SI_	43	0	4	96	96	0
STR	44	0	2
SI_	44	0	2	96	96	6
TAP	45	0	6
TAP	45	0	7
TAP	45	96	6
TAP	45	96	7
TAP	45	192	0
TAP	45	192	7
TAP	45	288	0
TAP	45	288	7
TAP	46	0	0
TAP	46	0	1
TAP	46	96	0
TAP	46	96	1
TAP	46	192	0
TAP	46	192	7
TAP	46	288	0
TAP	46	288	7
TAP	47	0	6
TAP	47	96	5
TAP	47	192	4
TAP	47	288	3
TAP	48	0	2
TAP	48	96	1
BRK	48	192	0
BRK	48	192	7
STR	49	0	1
SI_	49	0	1	96	192	5
STR	51	0	7
SI_	51	0	7	96	192	3
TAP	53	0	1
TAP	53	192	1
TAP	54	0	7
TAP	54	192	7
TAP	55	0	5
TAP	55	192	5
TAP	56	0	3
TAP	56	192	3
TAP	57	0	4
TAP	57	96	5
TAP	57	192	6
TAP	58	0	4
TAP	58	96	3
TAP	58	192	2
TAP	59	0	3
TAP	59	96	4
TAP	59	192	5
TAP	60	0	2
TAP	60	96	1
TAP	60	192	0
TAP	61	0	7
TAP	61	192	7
TAP	62	0	1
TAP	62	192	1
TAP	63	0	3
TAP	63	192	3
HLD	64	0	5	192
TAP	64	192	7
BRK	64	288	0
BRK	64	288	7
TAP	65	0	6
TAP	65	96	5
TAP	65	192	4
TAP	65	288	3
TAP	66	0	2
TAP	66	96	1
TAP	66	192	0
TAP	66	288	0
TAP	66	288	7
TAP	67	0	1
TAP	67	96	2
TAP	67	192	3
TAP	67	288	4
TAP	68	0	5
TAP	68	96	6
TAP	68	192	7
TAP	68	288	0
TAP	68	288	7
TAP	69	0	6
TAP	69	96	5
TAP	69	192	4
TAP	69	288	3
TAP	70	0	2
TAP	70	96	1
TAP	70	192	0
TAP	70	288	0
TAP	70	288	7
TAP	71	0	1
TAP	71	96	2
TAP	71	192	3
TAP	71	288	4
TAP	72	0	6
TAP	72	96	4
TAP	72	192	2
TAP	72	288	0
BRK	73	0	0
BRK	73	0	7

T_REC_TAP	241
T_REC_BRK	11
T_REC_XTP	0
T_REC_HLD	5
T_REC_XHO	0
T_REC_STR	4
T_REC_BST	0
T_REC_XST	0
T_REC_TTP	0
T_REC_THO	0
T_REC_SLD	4
T_REC_ALL	265
T_NUM_TAP	245
T_NUM_BRK	11
T_NUM_HLD	5
T_NUM_SLD	4
T_NUM_ALL	265
T_JUDGE_TAP	256
T_JUDGE_HLD	12
T_JUDGE_SLD	4
T_JUDGE_ALL	272
TTM_EACHPAIRS	35
TTM_SCR_TAP	122500
TTM_SCR_BRK	28600
TTM_SCR_HLD	5000
TTM_SCR_SLD	6000
TTM_SCR_ALL	162100
TTM_SCR_S	156200
TTM_SCR_SS	161000
TTM_RAT_ACV	10068

