VERSION	0.00.00	1.03.00
FES_MODE	0
BPM_DEF	138.000	138.000	138.000	138.000
MET_DEF	4	4
RESOLUTION	384
CLK_DEF	384
COMPATIBLE_CODE	MA2

BPM	0	0	138.000
MET	0	0	4	4

TAP	1	0	3
TAP	2	0	3
TAP	3	0	4
TAP	4	0	4
TAP	5	0	3
TAP	5	192	3
TAP	6	0	2
TAP	6	192	2
TAP	7	0	1
TAP	7	192	1
TAP	8	0	0
BRK	8	192	0
BRK	8	192	7
TAP	9	0	6
TAP	9	192	6
TAP	10	0	6
TAP	10	192	6
TAP	10	288	6
TAP	11	0	5
TAP	11	192	5
TAP	12	0	5
TAP	12	192	5
TAP	12	288	5
TAP	13	0	4
TAP	13	192	4
TAP	14	0	4
TAP	14	192	4
TAP	14	288	4
TAP	15	0	3
TAP	15	192	3
TAP	16	0	3
TAP	16	192	3
TAP	16	288	3
TAP	17	0	2
TAP	17	192	2
TAP	18	0	2
TAP	18	192	2
TAP	18	288	2
TAP	19	0	1
TAP	19	192	1
TAP	20	0	0
TAP	20	96	7
TAP	20	192	0
TAP	21	0	7
TAP	21	192	7
TAP	22	0	7
TAP	22	192	7
TAP	22	288	7
TAP	23	0	6
TAP	23	192	6
BRK	24	0	6
BRK	24	192	6
HLD	25	0	7	192
TAP	26	0	0
TAP	26	192	7
HLD	27	0	0	192
TAP	28	0	1
TAP	28	192	2
HLD	29	0	3	192
TAP	30	0	4
TAP	30	192	3
HLD	31	0	4	192
TAP	32	0	5
TAP	32	96	5
TAP	32	192	6
BRK	32	288	6
TAP	33	0	7
TAP	33	288	6
TAP	34	0	6
TAP	34	288	5
TAP	35	0	5
TAP	35	288	4
TAP	36	0	4
TAP	36	288	3
TAP	37	0	3
TAP	37	288	2
TAP	38	0	2
TAP	38	288	1
TAP	39	0	1
TAP	39	288	0
TAP	40	0	0
TAP	41	0	7
TAP	41	192	7
TAP	42	0	6
TAP	42	192	6
TAP	43	0	7
TAP	43	192	7
TAP	44	0	6
TAP	44	0	7
TAP	44	192	6
TAP	44	192	7
TAP	45	0	0
TAP	45	192	0
TAP	46	0	1
TAP	46	192	1
TAP	47	0	0
TAP	47	192	0
TAP	48	0	0
TAP	48	0	1
TAP	48	192	0
TAP	48	192	1
STR	49	0	0
SI_	49	0	0	96	288	3
STR	51	0	7
SI_	51	0	7	96	288	4
STR	53	0	1
SI_	53	0	1	96	288	6
STR	55	0	5
SI_	55	0	5	96	288	2
TAP	57	0	3
TAP	58	0	3
TAP	59	0	4
TAP	60	0	4
HLD	61	0	3	192
HLD	62	0	3	192
TAP	63	0	2
TAP	63	192	1
BRK	64	0	0
BRK	64	0	7
TAP	64	192	0
TAP	64	192	1
TAP	64	288	0
TAP	64	288	7
TAP	65	0	6
TAP	65	0	7
TAP	65	192	0
TAP	66	0	7
TAP	66	192	0
TAP	66	288	0
TAP	67	0	0
TAP	67	192	7
TAP	68	0	0
TAP	68	192	7
TAP	68	288	7
TAP	69	0	7
TAP	69	192	6
TAP	70	0	5
TAP	70	192	4
TAP	70	288	4
TAP	71	0	4
TAP	71	192	3
TAP	72	0	2
TAP	72	192	1
TAP	72	288	1
HLD	73	0	0	384

T_REC_TAP	123
T_REC_BRK	7
T_REC_XTP	0
T_REC_HLD	7
T_REC_XHO	0
T_REC_STR	4
T_REC_BST	0
T_REC_XST	0
T_REC_TTP	0
T_REC_THO	0
T_REC_SLD	4
T_REC_ALL	145
T_NUM_TAP	127
T_NUM_BRK	7
T_NUM_HLD	7
T_NUM_SLD	4
T_NUM_ALL	145
T_JUDGE_TAP	134
T_JUDGE_HLD	32
T_JUDGE_SLD	4
T_JUDGE_ALL	170
TTM_EACHPAIRS	9
TTM_SCR_TAP	63500
TTM_SCR_BRK	18200
TTM_SCR_HLD	7000
TTM_SCR_SLD	6000
TTM_SCR_ALL	94700
TTM_SCR_S	91200
TTM_SCR_SS	94000
TTM_RAT_ACV	10074

