VERSION	0.00.00	1.03.00
FES_MODE	0
BPM_DEF	175.000	175.000	175.000	175.000
MET_DEF	4	4
RESOLUTION	384
CLK_DEF	384
COMPATIBLE_CODE	MA2

BPM	0	0	175.000
MET	0	0	4	4

TAP	1	0	6
TAP	1	48	7
TAP	1	96	0
TAP	1	144	1
TAP	1	240	0
TAP	1	288	7
TAP	1	336	6
TAP	2	0	5
TAP	2	48	4
TAP	2	96	3
TAP	2	144	2
TAP	2	240	3
TAP	2	288	4
TAP	2	336	5
TAP	3	0	2
TAP	3	0	6
TAP	3	48	7
TAP	3	96	0
TAP	3	144	1
TAP	3	192	0
TAP	3	192	4
TAP	3	240	3
TAP	3	288	2
TAP	3	336	1
TAP	4	0	2
TAP	4	0	6
TAP	4	48	3
TAP	4	96	4
TAP	4	144	5
BRK	4	240	0
BRK	4	288	0
TAP	5	0	3
TAP	5	0	7
TAP	5	48	4
TAP	5	96	5
TAP	5	144	6
TAP	5	240	0
TAP	5	288	1
TAP	5	336	2
TAP	6	0	0
TAP	6	0	4
TAP	6	48	3
TAP	6	96	2
TAP	6	144	1
TAP	6	240	6
TAP	6	288	7
TAP	6	336	0
TAP	7	0	1
TAP	7	0	5
TAP	7	48	2
TAP	7	96	3
TAP	7	144	2
TAP	7	192	3
TAP	7	192	7
TAP	7	240	4
TAP	7	288	5
TAP	7	336	4
TAP	8	0	3
TAP	8	0	7
TAP	8	48	2
TAP	8	48	6
TAP	8	96	1
TAP	8	96	5
TAP	8	144	0
TAP	8	144	4
TAP	8	240	4
TAP	8	288	3
TAP	8	336	2
STR	9	0	1
SI_	9	0	1	96	192	4
TAP	10	48	3
TAP	10	96	2
TAP	10	144	1
TAP	10	192	0
TAP	10	240	3
TAP	10	288	4
TAP	10	336	5
STR	11	0	6
SI_	11	0	6	96	192	3
TAP	12	48	7
TAP	12	72	6
TAP	12	96	5
TAP	12	120	4
TAP	12	144	3
TAP	12	168	2
TAP	12	192	1
TAP	12	288	0
TAP	12	336	7
TAP	13	0	1
TAP	13	0	6
TAP	13	144	3
TAP	13	192	4
TAP	13	288	2
TAP	13	288	5
TAP	14	0	1
TAP	14	48	0
TAP	14	72	1
TAP	14	96	0
TAP	14	144	1
TAP	14	192	6
TAP	14	240	7
TAP	14	288	6
TAP	14	336	7
STR	15	0	5
SI_	15	0	5	96	48	1
TAP	15	48	5
STR	15	192	2
SI_	15	192	2	96	48	6
TAP	15	240	2
TAP	16	0	3
TAP	16	0	4
STR	16	48	3
SI_	16	48	3	96	48	0
STR	16	48	4
SI_	16	48	4	96	48	7
BRK	16	240	1
BRK	16	288	1
HLD	17	0	0	144
TAP	17	96	1
HLD	17	144	7	96
TAP	17	240	6
HLD	18	0	7	144
TAP	18	96	6
HLD	18	144	0	96
TAP	18	240	1
HLD	19	0	0	144
TAP	19	96	1
HLD	19	144	7	96
TAP	19	240	6
TAP	20	0	0
TAP	20	48	7
TAP	20	96	1
HLD	20	144	7	96
TAP	20	240	6
TAP	20	288	0
TAP	20	336	6
HLD	21	0	0	144
TAP	21	96	1
HLD	21	144	7	96
TAP	21	240	6
HLD	22	0	7	144
TAP	22	96	6
HLD	22	144	0	96
TAP	22	240	1
HLD	23	0	0	144
TAP	23	96	1
HLD	23	144	7	96
TAP	23	240	6
TAP	24	0	1
TAP	24	24	0
TAP	24	48	7
TAP	24	72	6
TAP	24	96	5
TAP	24	120	4
TAP	24	144	3
TAP	24	168	2
TAP	24	192	1
TAP	24	240	0
TAP	24	288	7
TAP	24	336	6
HLD	25	0	1	144
TAP	25	96	2
HLD	25	144	6	96
TAP	25	240	5
HLD	26	0	6	144
TAP	26	96	5
HLD	26	144	1	96
TAP	26	240	2
HLD	27	0	1	144
TAP	27	96	2
HLD	27	144	6	96
TAP	27	240	5
TAP	28	0	1
TAP	28	48	6
TAP	28	96	2
HLD	28	144	6	96
TAP	28	240	5
TAP	28	288	2
TAP	28	336	5
HLD	29	0	3	144
TAP	29	96	2
HLD	29	144	4	96
TAP	29	240	5
HLD	30	0	4	144
TAP	30	96	5
HLD	30	144	3	96
TAP	30	240	2
TAP	31	0	5
TAP	31	24	5
TAP	31	72	3
TAP	31	96	3
TAP	31	144	1
TAP	31	168	1
TAP	31	216	7
TAP	31	240	7
TAP	31	288	5
TAP	31	336	3
TAP	32	0	7
TAP	32	48	2
TAP	32	96	5
TAP	32	144	0
TAP	32	168	7
BRK	32	288	0
TAP	33	0	4
TAP	33	48	5
TAP	33	96	1
TAP	33	144	2
HLD	33	192	7	96
TAP	33	288	6
TAP	34	0	7
TAP	34	48	6
TAP	34	96	2
TAP	34	144	3
HLD	34	192	4	96
TAP	34	288	5
TAP	35	0	2
TAP	35	48	3
TAP	35	96	4
TAP	35	144	5
HLD	35	192	0	96
HLD	35	288	2	96
HLD	36	0	4	48
TAP	36	48	5
HLD	36	96	7	48
TAP	36	144	5
HLD	36	192	6	96
TAP	36	288	4
TAP	37	0	3
TAP	37	48	5
TAP	37	96	1
TAP	37	144	7
STR	37	192	2
SI_	37	192	2	96	48	6
TAP	38	0	7
TAP	38	48	1
TAP	38	96	5
TAP	38	144	3
STR	38	192	6
SI_	38	192	6	96	48	2
TAP	39	0	0
TAP	39	48	3
TAP	39	96	2
TAP	39	144	0
TAP	39	192	1
TAP	39	240	3
TAP	39	288	0
TAP	39	336	2
STR	40	0	0
SI_	40	0	0	96	96	3
TAP	40	144	1
HLD	40	192	1	96
TAP	41	0	4
TAP	41	48	4
TAP	41	96	3
TAP	41	144	3
HLD	41	192	2	96
BRK	41	240	0
BRK	41	288	0
TAP	42	0	3
TAP	42	48	3
TAP	42	96	4
TAP	42	144	4
HLD	42	192	5	96
BRK	42	240	7
BRK	42	288	7
TAP	43	0	6
TAP	43	48	6
TAP	43	96	5
TAP	43	144	5
HLD	43	192	4	96
TAP	43	288	3
TAP	44	0	1
TAP	44	0	5
TAP	44	96	2
TAP	44	96	6
TAP	44	192	0
TAP	44	192	4
TAP	45	0	2
TAP	45	0	3
TAP	45	192	0
TAP	45	192	6
TAP	46	0	0
TAP	46	0	6
TAP	46	96	0
TAP	46	96	6
TAP	46	192	0
TAP	46	192	6
TAP	46	240	0
TAP	46	240	6
TAP	46	288	0
TAP	46	288	6
HLD	47	0	3	96
HLD	47	192	5	96
TAP	48	0	0
TAP	48	24	1
TAP	48	48	2
TAP	48	72	3
TAP	48	96	4
TAP	48	120	5
TAP	48	144	6
TAP	48	168	7
TAP	48	192	0
TAP	48	216	1
TAP	48	240	2
TAP	48	264	3
TAP	48	288	4
TAP	48	312	5
TAP	48	336	6
TAP	48	360	7
TAP	49	0	0
TAP	50	0	2
TAP	51	0	4
TAP	52	0	6
TAP	53	0	4
TAP	53	96	3
TAP	53	192	2
TAP	53	288	1
HLD	54	0	3	96
HLD	54	96	4	96
HLD	54	192	5	96
HLD	54	288	6	96
STR	55	0	1
SCL	55	0	1	96	96	6
STR	55	96	6
SCL	55	96	6	96	96	3
STR	55	192	3
SCL	55	192	3	96	96	0
STR	55	288	0
SCL	55	288	0	96	96	5
STR	56	0	5
SI_	56	0	5	96	96	0
STR	56	96	0
SI_	56	96	0	96	96	3
TAP	57	0	1
TAP	57	96	2
TAP	57	192	3
TAP	57	288	4
TAP	58	0	5
TAP	58	48	6
TAP	58	48	7
TAP	58	96	0
TAP	58	96	1
TAP	58	144	2
TAP	58	144	3
TAP	58	192	4
TAP	58	192	5
TAP	58	240	6
TAP	58	288	5
TAP	58	336	4
TAP	59	0	3
TAP	59	96	2
TAP	59	192	1
TAP	59	288	0
TAP	60	0	7
TAP	60	48	6
TAP	60	72	5
TAP	60	96	4
TAP	60	120	3
TAP	60	144	2
TAP	60	168	1
TAP	60	192	0
TAP	60	288	7
HLD	61	0	6	96
TAP	61	96	0
HLD	61	192	1	96
TAP	61	288	7
TAP	62	0	0
TAP	62	96	7
TAP	62	192	1
TAP	62	240	6
BRK	62	288	0
BRK	62	288	7
STR	63	0	7
SI_	63	0	7	96	48	4
STR	63	48	7
SI_	63	48	7	96	192	3
STR	63	96	7
SI_	63	96	7	96	48	2
TAP	64	0	1
TAP	64	0	5
TAP	64	96	2
TAP	64	96	6
TAP	64	192	1
TAP	64	192	5
TAP	65	0	6
TAP	65	96	5
TAP	65	192	4
TAP	65	288	3
TAP	66	0	2
TAP	66	48	0
TAP	66	48	1
TAP	66	96	6
TAP	66	96	7
TAP	66	144	4
TAP	66	144	5
TAP	66	192	2
TAP	66	192	3
TAP	66	240	1
TAP	66	288	2
TAP	66	336	3
TAP	67	0	4
TAP	67	96	5
TAP	67	192	6
TAP	67	288	7
TAP	68	0	0
TAP	68	48	1
TAP	68	72	2
TAP	68	96	3
TAP	68	120	4
TAP	68	144	5
TAP	68	168	6
TAP	68	192	7
STR	68	288	0
SI_	68	288	0	96	48	5
STR	69	0	3
SI_	69	0	3	96	48	6
STR	69	96	4
SI_	69	96	4	96	48	1
STR	69	192	7
SI_	69	192	7	96	48	2
STR	70	0	1
SI_	70	0	1	96	48	4
STR	70	48	0
SI_	70	48	0	96	48	5
STR	70	192	7
SI_	70	192	7	96	48	2
STR	70	240	6
SI_	70	240	6	96	48	3
STR	71	0	0
SCL	71	0	0	96	48	5
STR	71	192	7
SCR	71	192	7	96	48	2
HLD	73	0	0	144
TAP	73	96	1
HLD	73	144	7	144
TAP	73	240	6
HLD	73	288	0	96
HLD	74	0	3	144
TAP	74	96	4
HLD	74	144	2	144
TAP	74	240	1
HLD	74	288	3	96
HLD	75	0	5	144
TAP	75	96	6
HLD	75	144	4	144
TAP	75	240	3
HLD	75	288	5	96
BRK	76	0	7
BRK	76	144	7
HLD	77	0	3	144
TAP	77	96	2
HLD	77	144	4	144
TAP	77	240	5
HLD	77	288	3	96
HLD	78	0	0	144
TAP	78	96	7
HLD	78	144	1	144
TAP	78	240	2
HLD	78	288	0	96
HLD	79	0	6	144
TAP	79	96	5
HLD	79	144	7	144
TAP	79	240	0
HLD	79	288	6	96
BRK	80	0	4
BRK	80	144	4
HLD	81	0	0	96
BRK	81	0	1
HLD	81	96	7	144
BRK	81	144	6
TAP	81	240	0
TAP	81	288	0
TAP	81	288	7
BRK	82	0	6
HLD	82	0	7	96
HLD	82	96	0	144
BRK	82	144	1
TAP	82	240	7
TAP	82	288	0
TAP	82	288	7
HLD	83	0	0	96
BRK	83	0	1
HLD	83	96	7	144
BRK	83	144	6
TAP	83	240	0
TAP	83	288	0
TAP	83	288	7
TAP	84	0	0
TAP	84	48	7
TAP	84	96	1
HLD	84	144	7	96
TAP	84	240	6
TAP	84	288	0
TAP	84	336	6
HLD	85	0	0	144
TAP	85	48	1
TAP	85	96	1
HLD	85	144	7	144
TAP	85	192	6
TAP	85	240	6
HLD	85	288	0	96
TAP	85	336	1
HLD	86	0	4	144
TAP	86	48	5
TAP	86	96	5
HLD	86	144	3	144
TAP	86	192	2
TAP	86	240	2
HLD	86	288	4	96
TAP	86	336	5
TAP	87	0	3
TAP	87	24	3
TAP	87	72	1
TAP	87	96	1
TAP	87	144	7
TAP	87	168	7
TAP	87	216	5
TAP	87	240	5
TAP	87	288	0
TAP	87	336	2
TAP	88	0	1
TAP	88	48	7
TAP	88	96	3
TAP	88	144	6
STR	88	168	4
SI_	88	168	4	96	24	0

T_REC_TAP	373
T_REC_BRK	21
T_REC_XTP	0
T_REC_HLD	74
T_REC_XHO	0
T_REC_STR	29
T_REC_BST	0
T_REC_XST	0
T_REC_TTP	0
T_REC_THO	0
T_REC_SLD	29
T_REC_ALL	526
T_NUM_TAP	402
T_NUM_BRK	21
T_NUM_HLD	74
T_NUM_SLD	29
T_NUM_ALL	526
T_JUDGE_TAP	423
T_JUDGE_HLD	176
T_JUDGE_SLD	29
T_JUDGE_ALL	628
TTM_EACHPAIRS	43
TTM_SCR_TAP	201000
TTM_SCR_BRK	54600
TTM_SCR_HLD	74000
TTM_SCR_SLD	43500
TTM_SCR_ALL	373100
TTM_SCR_S	359900
TTM_SCR_SS	371000
TTM_RAT_ACV	10056

