VERSION	0.00.00	1.03.00
FES_MODE	0
BPM_DEF	175.000	175.000	175.000	175.000
MET_DEF	4	4
RESOLUTION	384
CLK_DEF	384
COMPATIBLE_CODE	MA2

BPM	0	0	175.000
MET	0	0	4	4

TAP	9	0	1
HLD	9	0	4	384
TAP	9	192	0
STR	10	0	7
SCL	10	0	7	96	96	4
HLD	11	0	3	384
TAP	11	0	6
TAP	11	192	7
STR	12	0	0
SCR	12	0	0	96	96	3
TAP	13	0	0
TAP	13	0	5
TAP	13	192	2
TAP	13	192	7
STR	14	0	0
SI_	14	0	0	96	48	3
STR	14	192	7
SI_	14	192	7	96	48	4
HLD	15	0	1	192
TAP	15	192	6
TAP	16	0	3
TAP	16	0	4
TAP	16	192	0
TAP	16	192	5
TAP	17	0	1
TAP	17	0	7
TAP	17	96	3
TAP	17	192	0
TAP	17	192	6
TAP	17	288	4
TAP	18	0	1
TAP	18	0	7
TAP	18	96	3
TAP	18	192	0
TAP	18	192	6
TAP	18	288	4
TAP	19	0	1
TAP	19	0	7
TAP	19	96	3
TAP	19	192	0
TAP	19	192	6
TAP	19	288	4
TAP	20	0	1
TAP	20	0	7
TAP	20	96	3
TAP	20	192	1
TAP	20	192	7
TAP	20	288	3
HLD	21	0	0	96
TAP	21	0	6
TAP	21	96	4
TAP	21	192	1
HLD	21	192	7	96
TAP	21	288	3
HLD	22	0	0	96
TAP	22	0	6
TAP	22	96	4
TAP	22	192	1
HLD	22	192	7	96
TAP	22	288	3
HLD	23	0	0	96
TAP	23	0	6
TAP	23	96	4
TAP	23	192	1
HLD	23	192	7	96
TAP	23	288	3
HLD	24	0	0	96
TAP	24	0	6
TAP	24	96	4
HLD	24	192	0	96
TAP	24	192	6
TAP	24	288	4
HLD	25	0	1	96
TAP	25	0	7
TAP	25	96	3
TAP	25	192	0
HLD	25	192	6	96
TAP	25	288	4
HLD	26	0	1	96
TAP	26	0	7
TAP	26	96	3
TAP	26	192	0
HLD	26	192	6	96
TAP	26	288	4
HLD	27	0	1	96
TAP	27	0	7
TAP	27	96	3
TAP	27	192	0
HLD	27	192	6	96
TAP	27	288	4
HLD	28	0	1	96
TAP	28	0	7
TAP	28	96	3
HLD	28	192	1	96
TAP	28	192	7
TAP	28	288	3
TAP	29	0	0
TAP	29	0	6
TAP	29	96	4
TAP	29	192	1
TAP	29	192	7
TAP	29	288	3
TAP	30	0	0
TAP	30	0	6
TAP	30	96	4
TAP	30	192	1
TAP	30	192	7
TAP	30	288	3
TAP	31	0	3
TAP	31	0	6
TAP	31	72	3
TAP	31	144	1
TAP	31	144	4
TAP	31	216	4
TAP	31	288	2
TAP	31	288	5
STR	32	0	3
SI_	32	0	3	96	48	0
TAP	32	0	4
BRK	32	288	0
HLD	33	0	6	192
TAP	33	192	4
HLD	34	0	1	192
TAP	34	192	3
HLD	35	0	0	288
HLD	35	192	7	96
TAP	36	0	1
TAP	36	0	7
TAP	36	96	0
TAP	36	96	6
TAP	36	192	1
TAP	36	192	7
HLD	37	0	6	288
HLD	37	192	4	288
HLD	38	0	2	288
HLD	38	192	0	96
STR	39	0	1
SI_	39	0	1	96	48	4
STR	39	192	6
SI_	39	192	6	96	48	3
TAP	40	0	0
TAP	40	0	5
TAP	40	96	1
TAP	40	96	7
TAP	40	192	0
TAP	40	192	5
TAP	40	288	1
TAP	40	288	7
HLD	41	0	0	288
HLD	41	192	3	288
HLD	42	0	4	288
HLD	42	192	7	96
HLD	43	0	1	288
HLD	43	192	6	96
TAP	44	0	5
TAP	44	0	7
TAP	44	96	0
TAP	44	96	2
TAP	44	192	5
TAP	44	192	7
TAP	45	0	7
TAP	45	96	0
HLD	45	192	6	96
TAP	45	288	1
TAP	46	0	0
TAP	46	0	5
TAP	46	96	2
TAP	46	96	7
TAP	46	192	0
TAP	46	192	5
STR	47	0	7
SCL	47	0	7	96	48	4
STR	47	192	0
SCR	47	192	0	96	48	3
TAP	48	0	0
TAP	48	0	1
TAP	48	96	3
TAP	48	96	5
TAP	48	192	0
TAP	48	192	1
TAP	48	288	3
TAP	48	288	5
STR	49	0	1
SCL	49	0	1	96	96	6
TAP	49	192	1
STR	50	0	3
SCL	50	0	3	96	96	0
TAP	50	192	3
STR	51	0	5
SCL	51	0	5	96	96	2
TAP	51	192	5
STR	52	0	7
SCL	52	0	7	96	96	4
TAP	52	192	7
TAP	53	0	1
TAP	53	0	4
TAP	53	192	3
TAP	53	192	6
TAP	54	0	2
TAP	54	0	3
TAP	54	96	4
TAP	54	96	5
TAP	54	192	1
TAP	54	192	3
TAP	54	288	4
TAP	54	288	6
STR	55	0	4
SI_	55	0	4	96	48	1
STR	55	192	3
SI_	55	192	3	96	48	6
STR	56	0	0
SCR	56	0	0	96	96	3
STR	56	0	7
SCL	56	0	7	96	96	4
HLD	57	0	1	96
HLD	57	0	4	384
HLD	57	192	0	96
STR	58	0	7
SCL	58	0	7	96	96	4
HLD	59	0	3	384
HLD	59	0	6	96
HLD	59	192	7	96
STR	60	0	0
SCR	60	0	0	96	96	3
HLD	61	0	0	96
HLD	61	0	5	96
HLD	61	192	2	96
HLD	61	192	7	96
STR	62	0	0
SI_	62	0	0	96	48	3
STR	62	192	7
SI_	62	192	7	96	48	4
HLD	63	0	1	288
HLD	63	192	6	96
TAP	64	0	1
TAP	64	0	6
TAP	64	96	3
TAP	64	96	4
TAP	64	192	2
TAP	64	192	7
HLD	65	0	1	96
HLD	65	0	4	384
HLD	65	192	0	96
STR	66	0	7
SCL	66	0	7	96	96	4
HLD	67	0	3	384
HLD	67	0	6	96
HLD	67	192	7	96
STR	68	0	0
SCR	68	0	0	96	96	3
HLD	69	0	0	96
HLD	69	0	5	96
HLD	69	192	2	96
HLD	69	192	7	96
STR	70	0	0
SI_	70	0	0	96	48	3
STR	70	192	7
SI_	70	192	7	96	48	4
HLD	71	0	2	288
HLD	71	192	5	96
TAP	72	0	1
TAP	72	0	6
TAP	72	96	2
TAP	72	96	3
TAP	72	192	4
TAP	72	192	5
BRK	72	288	2
BRK	72	288	7
TAP	73	0	1
HLD	73	0	7	96
TAP	73	96	3
HLD	73	192	0	96
TAP	73	192	6
TAP	73	288	4
TAP	74	0	1
HLD	74	0	7	96
TAP	74	96	3
HLD	74	192	0	96
TAP	74	192	6
TAP	74	288	4
TAP	75	0	1
HLD	75	0	7	96
TAP	75	96	3
HLD	75	192	0	96
TAP	75	192	6
TAP	75	288	4
TAP	76	0	1
HLD	76	0	7	96
TAP	76	96	3
TAP	76	192	1
HLD	76	192	7	96
TAP	76	288	3
TAP	77	0	0
HLD	77	0	6	96
TAP	77	96	4
HLD	77	192	1	96
TAP	77	192	7
TAP	77	288	3
TAP	78	0	0
HLD	78	0	6	96
TAP	78	96	4
HLD	78	192	1	96
TAP	78	192	7
TAP	78	288	3
TAP	79	0	0
HLD	79	0	6	96
TAP	79	96	4
HLD	79	192	1	96
TAP	79	192	7
TAP	79	288	3
TAP	80	0	0
HLD	80	0	6	96
TAP	80	96	4
TAP	80	192	0
HLD	80	192	6	96
TAP	80	288	4
TAP	81	0	1
HLD	81	0	7	96
TAP	81	96	3
HLD	81	192	0	96
TAP	81	192	6
TAP	81	288	4
TAP	82	0	1
HLD	82	0	7	96
TAP	82	96	3
HLD	82	192	0	96
TAP	82	192	6
TAP	82	288	4
HLD	83	0	1	96
TAP	83	0	7
TAP	83	96	3
TAP	83	192	0
HLD	83	192	6	96
TAP	83	288	4
HLD	84	0	1	96
TAP	84	0	7
TAP	84	96	3
HLD	84	192	1	96
TAP	84	192	7
TAP	84	288	3
HLD	85	0	0	96
TAP	85	0	6
TAP	85	96	4
TAP	85	192	1
HLD	85	192	7	96
TAP	85	288	3
HLD	86	0	0	96
TAP	86	0	6
TAP	86	96	4
TAP	86	192	1
HLD	86	192	7	96
TAP	86	288	3
TAP	87	0	3
TAP	87	0	6
TAP	87	72	3
TAP	87	144	1
TAP	87	144	4
TAP	87	216	4
TAP	87	288	2
TAP	87	288	5
STR	88	0	3
SI_	88	0	3	96	48	0
TAP	88	0	4
BRK	88	288	0

T_REC_TAP	222
T_REC_BRK	4
T_REC_XTP	0
T_REC_HLD	86
T_REC_XHO	0
T_REC_STR	26
T_REC_BST	0
T_REC_XST	0
T_REC_TTP	0
T_REC_THO	0
T_REC_SLD	26
T_REC_ALL	364
T_NUM_TAP	248
T_NUM_BRK	4
T_NUM_HLD	86
T_NUM_SLD	26
T_NUM_ALL	364
T_JUDGE_TAP	252
T_JUDGE_HLD	254
T_JUDGE_SLD	26
T_JUDGE_ALL	532
TTM_EACHPAIRS	109
TTM_SCR_TAP	124000
TTM_SCR_BRK	10400
TTM_SCR_HLD	86000
TTM_SCR_SLD	39000
TTM_SCR_ALL	259400
TTM_SCR_S	251250
TTM_SCR_SS	259000
TTM_RAT_ACV	10015

