VERSION	0.00.00	1.03.00
FES_MODE	0
BPM_DEF	175.000	175.000	175.000	175.000
MET_DEF	4	4
RESOLUTION	384
CLK_DEF	384
COMPATIBLE_CODE	MA2

BPM	0	0	175.000
MET	0	0	4	4

TAP	1	0	1
TAP	1	96	1
TAP	2	0	6
TAP	2	96	6
TAP	3	0	0
TAP	3	0	1
TAP	3	192	6
TAP	3	192	7
TAP	4	0	0
TAP	4	96	7
TAP	5	0	3
TAP	5	96	3
TAP	6	0	4
TAP	6	96	4
TAP	7	0	2
TAP	7	0	3
TAP	7	192	4
TAP	7	192	5
TAP	8	0	2
TAP	8	96	5
TAP	9	0	5
TAP	9	192	5
STR	10	0	6
SI_	10	0	6	96	96	2
TAP	11	0	1
TAP	11	192	1
STR	12	0	1
SI_	12	0	1	96	96	5
HLD	13	0	0	192
TAP	13	192	2
HLD	14	0	7	192
TAP	14	192	5
TAP	15	0	6
TAP	15	192	1
STR	16	0	4
SI_	16	0	4	96	96	7
HLD	17	0	1	144
HLD	18	0	6	144
HLD	19	0	2	144
HLD	20	0	5	144
TAP	21	0	1
TAP	21	144	1
TAP	22	0	0
TAP	22	144	0
TAP	23	0	7
TAP	23	144	7
TAP	24	0	6
TAP	24	144	6
TAP	25	0	0
TAP	25	144	7
TAP	26	0	7
TAP	26	144	0
TAP	27	0	1
TAP	27	144	0
HLD	28	0	6	192
TAP	28	288	7
STR	29	0	0
SI_	29	0	0	96	96	5
STR	30	0	7
SI_	30	0	7	96	96	2
HLD	31	0	1	288
TAP	32	0	5
TAP	32	96	6
TAP	32	192	7
BRK	32	288	7
TAP	33	0	0
TAP	33	192	1
TAP	34	0	5
TAP	34	192	4
TAP	35	0	2
TAP	35	192	3
TAP	36	0	7
TAP	36	192	6
HLD	37	0	1	192
HLD	38	0	6	192
TAP	39	0	7
TAP	39	192	6
TAP	40	0	0
TAP	40	96	7
TAP	40	192	0
TAP	41	0	5
TAP	41	96	5
TAP	41	192	4
TAP	42	0	2
TAP	42	96	2
TAP	42	192	3
TAP	43	0	2
TAP	43	96	3
TAP	43	192	4
TAP	43	288	5
HLD	44	0	6	192
TAP	44	192	7
HLD	45	0	0	192
HLD	45	0	6	191
TAP	46	0	0
TAP	46	96	0
TAP	46	192	0
TAP	46	288	0
TAP	46	288	7
TAP	47	0	7
TAP	47	192	6
STR	48	0	5
SI_	48	0	5	96	96	2
STR	48	0	6
SI_	48	0	6	96	96	1
TAP	49	0	3
TAP	50	0	3
TAP	51	0	4
TAP	52	0	4
TAP	53	0	2
TAP	53	192	1
TAP	54	0	5
TAP	54	192	6
TAP	55	0	0
TAP	55	192	7
HLD	56	0	0	192
HLD	56	0	7	192
TAP	57	0	0
TAP	57	96	0
TAP	57	192	1
TAP	57	288	1
TAP	58	0	2
TAP	58	96	3
TAP	58	192	4
TAP	58	192	5
TAP	59	0	7
TAP	59	96	7
TAP	59	192	6
TAP	59	288	6
TAP	60	0	5
TAP	60	96	4
BRK	60	192	2
BRK	60	192	3
HLD	61	0	1	192
TAP	61	192	0
HLD	62	0	6	192
TAP	62	192	7
HLD	63	0	0	192
HLD	63	192	7	192
TAP	64	0	0
TAP	64	96	1
BRK	64	192	2
TAP	65	0	1
TAP	65	96	1
TAP	65	192	6
TAP	65	288	6
TAP	66	0	1
TAP	66	96	0
TAP	66	192	6
TAP	66	192	7
TAP	67	0	6
TAP	67	96	6
TAP	67	192	1
TAP	67	288	1
TAP	68	0	6
TAP	68	96	7
TAP	68	192	0
TAP	68	192	1
STR	69	0	0
SI_	69	0	0	96	96	3
STR	70	0	7
SI_	70	0	7	96	96	4
STR	71	0	0
SI_	71	0	0	96	96	3
STR	71	0	7
SI_	71	0	7	96	96	4
HLD	73	0	1	144
TAP	73	240	1
HLD	74	0	0	144
TAP	74	240	0
HLD	75	0	7	144
TAP	75	240	7
HLD	76	0	6	144
TAP	76	240	6
HLD	77	0	2	144
TAP	77	240	2
HLD	78	0	3	144
TAP	78	240	3
HLD	79	0	4	144
TAP	79	240	4
HLD	80	0	5	144
TAP	80	240	5
STR	81	0	1
SI_	81	0	1	96	96	4
TAP	81	0	6
TAP	82	0	1
STR	82	0	6
SI_	82	0	6	96	96	3
STR	83	0	1
SI_	83	0	1	96	96	4
TAP	83	0	6
TAP	84	0	1
STR	84	0	6
SI_	84	0	6	96	96	3
STR	85	0	1
SI_	85	0	1	96	96	4
STR	86	0	6
SI_	86	0	6	96	96	1
STR	87	0	0
SI_	87	0	0	96	96	5
TAP	88	0	6
TAP	88	0	7
TAP	88	96	0
TAP	88	96	7
TAP	88	192	0
TAP	88	192	1
BRK	88	288	0

T_REC_TAP	139
T_REC_BRK	5
T_REC_XTP	0
T_REC_HLD	27
T_REC_XHO	0
T_REC_STR	18
T_REC_BST	0
T_REC_XST	0
T_REC_TTP	0
T_REC_THO	0
T_REC_SLD	18
T_REC_ALL	207
T_NUM_TAP	157
T_NUM_BRK	5
T_NUM_HLD	27
T_NUM_SLD	18
T_NUM_ALL	207
T_JUDGE_TAP	162
T_JUDGE_HLD	98
T_JUDGE_SLD	18
T_JUDGE_ALL	278
TTM_EACHPAIRS	20
TTM_SCR_TAP	78500
TTM_SCR_BRK	13000
TTM_SCR_HLD	27000
TTM_SCR_SLD	27000
TTM_SCR_ALL	145500
TTM_SCR_S	140650
TTM_SCR_SS	145000
TTM_RAT_ACV	10034

