VERSION	0.00.00	1.03.00
FES_MODE	0
BPM_DEF	175.000	175.000	175.000	175.000
MET_DEF	4	4
RESOLUTION	384
CLK_DEF	384
COMPATIBLE_CODE	MA2

BPM	0	0	175.000
MET	0	0	4	4

TAP	1	0	3
TAP	2	0	4
TAP	3	0	3
TAP	3	192	4
TAP	4	0	3
TAP	5	0	2
TAP	6	0	1
TAP	7	0	0
TAP	7	192	7
TAP	8	0	0
TAP	8	0	7
STR	9	0	0
SI_	9	0	0	96	288	3
STR	11	0	7
SI_	11	0	7	96	288	4
TAP	13	0	0
TAP	14	0	7
TAP	15	0	0
TAP	15	192	7
BRK	16	0	0
HLD	17	0	0	144
HLD	18	0	7	144
HLD	19	0	0	144
TAP	20	0	7
TAP	20	192	6
HLD	21	0	5	144
HLD	22	0	4	144
HLD	23	0	5	144
TAP	24	0	4
TAP	24	192	3
HLD	25	0	2	144
HLD	26	0	1	144
HLD	27	0	2	144
TAP	28	0	1
TAP	28	192	0
HLD	29	0	7	144
HLD	30	0	6	144
TAP	31	0	7
TAP	32	0	0
TAP	33	0	7
TAP	34	0	6
STR	35	0	7
SI_	35	0	7	96	288	4
TAP	37	0	0
TAP	38	0	1
STR	39	0	0
SI_	39	0	0	96	288	3
TAP	41	0	5
TAP	42	0	6
TAP	43	0	7
TAP	44	0	0
TAP	45	0	7
TAP	45	192	0
TAP	46	0	0
TAP	46	0	7
TAP	46	192	0
TAP	46	192	7
HLD	47	0	1	192
HLD	48	0	2	192
TAP	49	0	3
TAP	50	0	3
TAP	51	0	4
TAP	52	0	4
TAP	53	0	5
TAP	53	192	5
TAP	54	0	6
TAP	54	192	6
TAP	55	0	7
TAP	55	192	0
HLD	56	0	0	192
HLD	56	0	7	192
TAP	57	0	0
TAP	57	192	1
TAP	58	0	2
TAP	58	192	3
TAP	59	0	4
TAP	59	192	5
TAP	60	0	6
TAP	60	192	7
HLD	61	0	0	192
HLD	62	0	7	192
TAP	63	0	0
TAP	63	192	1
TAP	64	0	0
TAP	64	96	0
TAP	64	192	0
TAP	65	0	7
TAP	65	192	6
TAP	66	0	5
TAP	66	192	4
TAP	67	0	3
TAP	67	192	2
TAP	68	0	1
TAP	68	192	0
HLD	69	0	7	192
HLD	70	0	0	192
TAP	71	0	7
TAP	71	192	0
BRK	72	0	0
BRK	72	0	7
HLD	73	0	7	144
HLD	74	0	0	144
HLD	75	0	7	144
TAP	76	0	0
TAP	76	192	1
HLD	77	0	2	144
HLD	78	0	3	144
HLD	79	0	2	144
TAP	80	0	3
TAP	80	192	4
HLD	81	0	5	144
HLD	82	0	6	144
HLD	83	0	5	144
TAP	84	0	6
TAP	84	192	7
HLD	85	0	0	144
HLD	86	0	1	144
TAP	87	0	0
TAP	87	192	7
TAP	88	0	0
TAP	88	0	7
BRK	88	288	0

T_REC_TAP	80
T_REC_BRK	4
T_REC_XTP	0
T_REC_HLD	30
T_REC_XHO	0
T_REC_STR	4
T_REC_BST	0
T_REC_XST	0
T_REC_TTP	0
T_REC_THO	0
T_REC_SLD	4
T_REC_ALL	122
T_NUM_TAP	84
T_NUM_BRK	4
T_NUM_HLD	30
T_NUM_SLD	4
T_NUM_ALL	122
T_JUDGE_TAP	88
T_JUDGE_HLD	98
T_JUDGE_SLD	4
T_JUDGE_ALL	190
TTM_EACHPAIRS	6
TTM_SCR_TAP	42000
TTM_SCR_BRK	10400
TTM_SCR_HLD	30000
TTM_SCR_SLD	6000
TTM_SCR_ALL	88400
TTM_SCR_S	85400
TTM_SCR_SS	88000
TTM_RAT_ACV	10045

