VERSION	0.00.00	1.03.00
FES_MODE	0
BPM_DEF	200.000	200.000	200.000	200.000
MET_DEF	4	4
RESOLUTION	384
CLK_DEF	384
COMPATIBLE_CODE	MA2

BPM	0	0	200.000

TAP	1	0	5
STR	1	48	6
SCL	1	48	6	96	48	4
TAP	1	144	3
TAP	1	192	2
STR	1	240	1
SCR	1	240	1	96	48	3
TAP	1	336	5
TAP	2	0	5
TAP	2	96	5
TAP	2	144	4
STR	2	192	6
SI_	2	192	6	96	48	4
TAP	2	240	5
TAP	2	288	6
TAP	3	0	2
STR	3	48	1
SCR	3	48	1	96	48	3
TAP	3	144	4
TAP	3	192	5
STR	3	240	6
SCL	3	240	6	96	48	4
TAP	3	336	2
TAP	4	0	2
TAP	4	96	2
TAP	4	144	3
STR	4	192	1
SI_	4	192	1	96	48	3
TAP	4	240	2
TAP	4	288	1
TAP	5	0	5
STR	5	48	6
SCL	5	48	6	96	48	4
TAP	5	144	3
TAP	5	192	2
STR	5	240	1
SCR	5	240	1	96	48	3
TAP	5	336	5
TAP	6	0	5
TAP	6	96	5
TAP	6	144	4
STR	6	192	6
SI_	6	192	6	96	48	4
TAP	6	240	5
TAP	6	288	6
TAP	7	0	2
STR	7	48	1
SCR	7	48	1	96	48	3
TAP	7	144	4
TAP	7	192	5
STR	7	240	6
SCL	7	240	6	96	48	4
TAP	7	336	2
STR	8	0	2
SI_	8	0	2	96	48	5
STR	8	96	6
SI_	8	96	6	96	48	1
BRK	8	192	0
STR	9	0	1
SCL	9	0	1	96	48	6
TAP	9	0	3
TAP	9	96	4
TAP	9	144	4
STR	9	192	5
SCL	9	192	5	96	48	2
STR	9	288	0
SI_	9	288	0	96	48	3
TAP	9	336	0
STR	10	0	4
SI_	10	0	4	96	48	7
TAP	10	48	4
STR	10	96	1
SI_	10	96	1	96	48	6
TAP	10	144	1
STR	10	192	5
SI_	10	192	5	96	48	2
TAP	10	240	5
TAP	10	288	0
TAP	11	0	4
STR	11	0	6
SCR	11	0	6	96	48	1
TAP	11	96	3
TAP	11	144	3
STR	11	192	2
SCR	11	192	2	96	48	5
STR	11	288	7
SI_	11	288	7	96	48	4
TAP	11	336	7
STR	12	0	3
SI_	12	0	3	96	48	0
TAP	12	48	3
STR	12	96	6
SI_	12	96	6	96	48	1
TAP	12	144	6
STR	12	192	2
SI_	12	192	2	96	48	5
TAP	12	240	2
TAP	12	288	7
STR	13	0	1
SCL	13	0	1	96	48	6
TAP	13	0	3
TAP	13	96	4
TAP	13	144	4
STR	13	192	5
SCL	13	192	5	96	48	2
STR	13	288	0
SI_	13	288	0	96	48	3
TAP	13	336	0
STR	14	0	4
SI_	14	0	4	96	48	7
TAP	14	48	4
STR	14	96	1
SI_	14	96	1	96	48	6
TAP	14	144	1
STR	14	192	5
SI_	14	192	5	96	48	2
TAP	14	240	5
TAP	14	288	0
TAP	15	0	4
STR	15	0	6
SCR	15	0	6	96	48	1
TAP	15	96	3
TAP	15	144	3
STR	15	192	2
SCR	15	192	2	96	48	5
STR	15	288	7
SI_	15	288	7	96	48	4
TAP	15	336	7
STR	16	0	3
SI_	16	0	3	96	48	0
TAP	16	48	3
STR	16	96	5
SI_	16	96	5	96	48	2
TAP	16	144	5
TAP	16	192	7
STR	16	288	1
SI_	16	288	1	96	48	4
TAP	16	288	6
TAP	17	0	1
BRK	17	0	7
TAP	17	96	5
TAP	17	144	5
STR	17	192	1
SI_	17	192	1	96	48	3
TAP	17	192	4
STR	17	288	1
SI_	17	288	1	96	48	4
TAP	17	288	7
TAP	18	0	1
TAP	18	0	7
TAP	18	96	5
TAP	18	144	5
STR	18	192	1
SI_	18	192	1	96	48	3
TAP	18	192	4
STR	18	288	1
SI_	18	288	1	96	48	4
TAP	18	288	6
TAP	19	0	1
TAP	19	0	7
TAP	19	96	5
TAP	19	144	5
STR	19	192	1
SI_	19	192	1	96	48	3
TAP	19	192	4
STR	19	288	1
SI_	19	288	1	96	48	4
TAP	19	288	6
TAP	20	0	1
TAP	20	0	7
TAP	20	96	5
TAP	20	144	5
STR	20	192	1
SI_	20	192	1	96	48	3
TAP	20	192	4
STR	20	288	1
SI_	20	288	1	96	48	4
STR	20	288	5
SI_	20	288	5	96	48	7
TAP	21	0	1
TAP	21	0	5
TAP	21	96	5
TAP	21	144	5
STR	21	192	1
SI_	21	192	1	96	48	3
TAP	21	192	4
STR	21	288	1
SI_	21	288	1	96	48	4
HLD	21	288	6	48
TAP	22	0	1
TAP	22	0	6
TAP	22	96	5
TAP	22	144	5
STR	22	192	1
SI_	22	192	1	96	48	3
TAP	22	192	4
STR	22	288	1
SI_	22	288	1	96	48	4
HLD	22	288	7	48
TAP	23	0	1
TAP	23	0	7
TAP	23	96	5
TAP	23	144	5
STR	23	192	1
SI_	23	192	1	96	48	3
TAP	23	192	4
STR	23	288	1
SI_	23	288	1	96	48	4
STR	23	288	7
SI_	23	288	7	96	48	4
TAP	24	0	1
TAP	24	0	7
STR	24	96	1
SI_	24	96	1	96	48	5
TAP	24	96	5
TAP	24	144	5
STR	24	192	1
SI_	24	192	1	96	48	3
TAP	24	192	4
TAP	24	288	1
STR	24	288	6
SI_	24	288	6	96	48	4
TAP	25	0	0
TAP	25	0	6
TAP	25	96	2
TAP	25	144	2
TAP	25	192	3
STR	25	192	6
SI_	25	192	6	96	48	4
TAP	25	288	0
STR	25	288	6
SI_	25	288	6	96	48	3
TAP	26	0	0
TAP	26	0	6
TAP	26	96	2
TAP	26	144	2
TAP	26	192	3
STR	26	192	6
SI_	26	192	6	96	48	4
HLD	26	288	1	48
STR	26	288	6
SI_	26	288	6	96	48	3
TAP	27	0	1
TAP	27	0	6
TAP	27	96	2
TAP	27	144	2
TAP	27	192	3
STR	27	192	6
SI_	27	192	6	96	48	4
TAP	27	288	3
STR	27	288	6
SI_	27	288	6	96	48	3
TAP	28	0	0
TAP	28	0	6
TAP	28	96	2
TAP	28	144	2
TAP	28	192	3
STR	28	192	6
SI_	28	192	6	96	48	4
TAP	28	288	0
STR	28	288	6
SI_	28	288	6	96	48	3
TAP	29	0	2
TAP	29	0	6
TAP	29	96	2
TAP	29	144	2
TAP	29	192	3
STR	29	192	6
SI_	29	192	6	96	48	4
HLD	29	288	0	48
STR	29	288	6
SI_	29	288	6	96	48	3
TAP	30	0	0
TAP	30	0	6
TAP	30	96	2
TAP	30	144	2
TAP	30	192	3
STR	30	192	6
SI_	30	192	6	96	48	4
STR	30	288	2
SCL	30	288	2	96	48	0
STR	30	288	6
SI_	30	288	6	96	48	3
TAP	31	0	2
TAP	31	0	6
TAP	31	96	2
TAP	31	144	2
TAP	31	192	3
TAP	31	192	5
TAP	31	288	3
STR	31	288	4
SCR	31	288	4	96	48	7
STR	32	0	3
SCL	32	0	3	96	48	0
TAP	32	96	4
BRK	32	192	7
TAP	32	288	3
TAP	32	288	4
STR	33	0	3
SCL	33	0	3	96	288	0
TAP	33	0	4
TAP	33	48	4
TAP	33	96	4
TAP	33	144	4
TAP	33	192	4
TAP	33	240	4
TAP	33	288	4
TAP	33	336	4
TAP	34	0	4
TAP	34	48	4
TAP	34	96	4
TAP	34	144	4
TAP	34	192	4
TAP	34	216	3
TAP	34	240	4
TAP	34	264	3
TAP	34	288	4
TAP	34	336	4
STR	35	0	3
SCL	35	0	3	96	288	0
TAP	35	0	4
TAP	35	48	4
TAP	35	96	4
TAP	35	144	4
TAP	35	192	4
TAP	35	240	4
TAP	35	288	4
TAP	35	336	4
TAP	36	0	4
TAP	36	48	4
TAP	36	96	4
TAP	36	144	4
TAP	36	192	4
TAP	36	240	4
TAP	36	264	3
TAP	36	288	4
TAP	36	312	3
TAP	36	336	4
STR	37	0	3
SCL	37	0	3	96	288	0
TAP	37	0	4
TAP	37	48	4
TAP	37	96	4
TAP	37	144	4
TAP	37	192	4
TAP	37	240	4
TAP	37	288	4
TAP	37	336	4
TAP	38	0	4
TAP	38	48	4
TAP	38	96	4
TAP	38	144	4
TAP	38	192	3
TAP	38	192	4
TAP	38	240	4
TAP	38	264	3
TAP	38	288	4
TAP	38	336	4
STR	39	0	3
SCL	39	0	3	96	288	0
TAP	39	0	4
TAP	39	48	4
TAP	39	96	4
TAP	39	144	4
TAP	39	192	4
TAP	39	240	4
TAP	39	288	4
TAP	39	336	4
TAP	40	0	4
TAP	40	48	4
TAP	40	96	4
TAP	40	144	4
TAP	40	192	4
TAP	40	240	4
TAP	40	288	3
TAP	40	288	4
TAP	41	0	3
TAP	41	0	6
TAP	41	48	4
TAP	41	96	4
TAP	41	120	5
TAP	41	144	4
TAP	41	168	5
TAP	41	192	4
TAP	41	216	5
TAP	41	240	4
TAP	41	288	4
TAP	41	336	4
TAP	42	0	4
TAP	42	48	4
TAP	42	72	5
TAP	42	96	4
TAP	42	120	5
TAP	42	144	4
TAP	42	192	4
TAP	42	216	5
TAP	42	240	4
TAP	42	288	4
TAP	42	312	5
TAP	42	336	4
TAP	43	0	4
TAP	43	48	4
TAP	43	96	4
TAP	43	120	5
TAP	43	144	4
TAP	43	168	5
TAP	43	192	4
TAP	43	216	5
TAP	43	240	4
TAP	43	288	4
TAP	43	336	4
TAP	44	0	4
TAP	44	48	4
TAP	44	72	5
TAP	44	96	4
TAP	44	120	5
TAP	44	144	4
TAP	44	192	4
TAP	44	216	5
TAP	44	240	4
TAP	44	288	4
TAP	44	312	5
TAP	44	336	4
TAP	45	0	4
TAP	45	48	4
TAP	45	96	4
TAP	45	120	5
TAP	45	144	4
TAP	45	168	5
TAP	45	192	4
TAP	45	216	5
TAP	45	240	4
TAP	45	288	4
TAP	45	336	4
TAP	46	0	4
TAP	46	24	5
TAP	46	48	4
TAP	46	72	5
TAP	46	96	4
TAP	46	120	5
TAP	46	144	4
TAP	46	192	4
TAP	46	216	5
TAP	46	240	4
TAP	46	288	4
TAP	46	312	5
TAP	46	336	4
TAP	47	0	3
TAP	47	0	6
TAP	47	48	3
TAP	47	48	6
TAP	47	144	1
TAP	47	144	4
TAP	47	192	1
TAP	47	192	4
TAP	47	288	3
TAP	47	288	4
TAP	47	336	3
TAP	47	336	4
TAP	48	0	3
TAP	48	0	4
TAP	48	48	5
TAP	48	72	6
TAP	48	96	7
TAP	48	120	0
TAP	48	144	1
TAP	48	168	2
BRK	48	192	3
BRK	48	192	4
STR	48	288	5
SI_	48	288	5	96	48	2
STR	48	288	6
SI_	48	288	6	96	48	1
TAP	49	0	5
TAP	49	0	6
STR	49	96	5
SI_	49	96	5	96	48	1
STR	49	96	6
SI_	49	96	6	96	48	2
TAP	49	192	5
TAP	49	192	6
STR	49	288	5
SSR	49	288	5	96	48	1
STR	49	288	6
SUL	49	288	6	96	48	2
TAP	50	0	5
TAP	50	0	6
STR	50	96	5
SSL	50	96	5	96	48	1
STR	50	96	6
SSL	50	96	6	96	48	2
TAP	50	192	5
TAP	50	192	6
TAP	50	288	7
TAP	50	336	6
TAP	51	0	0
STR	51	0	5
SCR	51	0	5	96	48	7
TAP	51	96	3
TAP	51	144	2
STR	51	192	1
SCR	51	192	1	96	48	3
TAP	51	192	4
HLD	51	288	7	96
TAP	52	0	0
TAP	52	48	1
TAP	52	48	2
TAP	52	96	3
TAP	52	96	4
TAP	52	144	5
TAP	52	144	6
TAP	52	192	0
TAP	52	192	7
STR	52	288	4
SI_	52	288	4	96	48	0
TAP	52	288	6
TAP	53	0	4
STR	53	0	7
SI_	53	0	7	96	48	3
STR	53	96	1
SI_	53	96	1	96	48	5
TAP	53	96	7
TAP	53	192	1
TAP	53	192	6
TAP	53	288	1
STR	53	288	3
SI_	53	288	3	96	48	7
TAP	53	336	1
STR	54	0	0
SI_	54	0	0	96	48	4
TAP	54	0	3
TAP	54	96	0
STR	54	96	6
SI_	54	96	6	96	48	2
TAP	54	192	1
TAP	54	192	6
TAP	54	288	4
STR	54	288	6
SCR	54	288	6	96	48	1
TAP	54	336	4
STR	55	0	3
SI_	55	0	3	96	48	7
TAP	55	0	6
TAP	55	96	3
STR	55	96	5
SCL	55	96	5	96	48	2
TAP	55	192	0
TAP	55	192	5
STR	55	288	1
SCL	55	288	1	96	48	6
TAP	55	288	3
TAP	55	336	3
TAP	56	0	1
STR	56	0	4
SI_	56	0	4	96	48	0
STR	56	96	2
SCR	56	96	2	96	48	5
TAP	56	96	4
TAP	56	192	2
TAP	56	192	7
TAP	56	240	7
BST	56	288	7
SF_	56	288	7	96	48	3
TAP	57	0	7
STR	57	96	0
SF_	57	96	0	96	48	4
TAP	57	192	0
STR	57	288	0
SI_	57	288	0	96	48	3
STR	57	288	7
SI_	57	288	7	96	48	4
TAP	58	0	0
TAP	58	0	7
TAP	58	96	0
TAP	58	96	7
TAP	58	144	0
TAP	58	144	7
BRK	58	192	1
BST	58	192	6
SI_	58	192	6	96	48	3
STR	58	288	2
SI_	58	288	2	96	48	7
STR	59	0	5
SI_	59	0	5	96	48	0
STR	59	96	1
SI_	59	96	1	96	48	4
STR	59	192	6
SI_	59	192	6	96	48	2
TAP	59	288	1
TAP	60	0	0
TAP	60	0	7
TAP	60	48	0
TAP	60	48	7
STR	60	96	1
SV_	60	96	1	96	48	6
STR	60	96	6
SV_	60	96	6	96	48	1
TAP	60	192	1
TAP	60	192	6
TAP	60	288	3
TAP	60	288	4
STR	61	0	3
SI_	61	0	3	96	48	0
TAP	61	0	4
TAP	61	96	4
TAP	61	144	4
STR	61	192	3
SI_	61	192	3	96	48	0
TAP	61	240	7
TAP	61	288	6
TAP	61	336	5
TAP	62	0	3
STR	62	0	4
SI_	62	0	4	96	48	7
TAP	62	96	3
TAP	62	144	3
STR	62	192	4
SI_	62	192	4	96	48	7
TAP	62	240	0
TAP	62	288	1
TAP	62	336	2
STR	63	0	3
SI_	63	0	3	96	48	0
TAP	63	0	4
TAP	63	96	4
TAP	63	144	4
TAP	63	192	3
TAP	63	240	5
TAP	63	288	3
TAP	63	288	4
TAP	64	0	0
TAP	64	0	7
TAP	64	48	1
TAP	64	48	6
STR	64	96	2
SI_	64	96	2	96	48	5
STR	64	96	5
SI_	64	96	5	96	48	2
BRK	64	288	1
BRK	64	288	6
STR	65	0	1
SCL	65	0	1	96	48	6
TAP	65	0	3
TAP	65	96	4
TAP	65	144	4
STR	65	192	5
SCL	65	192	5	96	48	2
STR	65	288	1
SI_	65	288	1	96	48	5
TAP	65	336	1
STR	66	0	6
SI_	66	0	6	96	48	2
TAP	66	48	6
STR	66	96	0
SI_	66	96	0	96	48	4
TAP	66	144	0
STR	66	192	7
SI_	66	192	7	96	48	3
TAP	66	240	7
TAP	66	288	1
TAP	66	336	2
TAP	67	0	4
STR	67	0	6
SCR	67	0	6	96	48	1
TAP	67	96	3
TAP	67	144	3
STR	67	192	2
SCR	67	192	2	96	48	5
STR	67	288	6
SI_	67	288	6	96	48	2
TAP	67	336	6
STR	68	0	1
SI_	68	0	1	96	48	5
TAP	68	48	1
STR	68	96	7
SI_	68	96	7	96	48	3
TAP	68	144	7
STR	68	192	0
SI_	68	192	0	96	48	4
TAP	68	240	0
TAP	68	288	6
TAP	68	336	5
STR	69	0	1
SCL	69	0	1	96	48	6
TAP	69	0	3
TAP	69	96	4
TAP	69	144	4
STR	69	192	5
SCL	69	192	5	96	48	2
STR	69	288	1
SI_	69	288	1	96	48	5
TAP	69	336	1
STR	70	0	6
SI_	70	0	6	96	48	2
TAP	70	48	6
STR	70	96	0
SI_	70	96	0	96	48	4
TAP	70	144	0
STR	70	192	7
SI_	70	192	7	96	48	3
TAP	70	240	7
TAP	70	288	1
TAP	70	336	2
TAP	71	0	4
STR	71	0	6
SCR	71	0	6	96	48	1
TAP	71	96	3
TAP	71	144	3
STR	71	192	2
SCR	71	192	2	96	48	5
STR	71	288	6
SI_	71	288	6	96	48	2
TAP	71	336	6
STR	72	0	1
SI_	72	0	1	96	48	5
TAP	72	48	1
STR	72	96	7
SI_	72	96	7	96	48	3
TAP	72	144	7
TAP	72	192	0
STR	72	288	0
SI_	72	288	0	96	48	3
TAP	72	288	4
TAP	73	0	0
TAP	73	0	7
TAP	73	96	5
TAP	73	144	5
STR	73	192	0
SI_	73	192	0	96	48	2
TAP	73	192	4
STR	73	288	0
SI_	73	288	0	96	48	4
TAP	73	288	7
TAP	74	0	0
TAP	74	0	7
TAP	74	96	5
TAP	74	144	5
STR	74	192	0
SI_	74	192	0	96	48	2
TAP	74	192	4
STR	74	288	0
SI_	74	288	0	96	48	4
TAP	74	288	6
TAP	75	0	0
TAP	75	0	7
TAP	75	96	5
TAP	75	144	5
STR	75	192	0
SI_	75	192	0	96	48	2
TAP	75	192	4
STR	75	288	0
SI_	75	288	0	96	48	4
TAP	75	288	6
TAP	76	0	0
TAP	76	0	7
TAP	76	96	5
TAP	76	144	5
STR	76	192	0
SI_	76	192	0	96	48	2
TAP	76	192	4
STR	76	288	0
SI_	76	288	0	96	48	4
STR	76	288	4
SI_	76	288	4	96	48	7
TAP	77	0	0
TAP	77	0	4
TAP	77	96	5
TAP	77	144	5
STR	77	192	0
SI_	77	192	0	96	48	2
TAP	77	192	4
STR	77	288	0
SI_	77	288	0	96	48	4
HLD	77	288	6	48
TAP	78	0	0
TAP	78	0	6
TAP	78	96	5
TAP	78	144	5
STR	78	192	0
SI_	78	192	0	96	48	2
TAP	78	192	4
STR	78	288	0
SI_	78	288	0	96	48	4
HLD	78	288	7	48
TAP	79	0	0
TAP	79	0	7
TAP	79	96	5
TAP	79	144	5
STR	79	192	0
SI_	79	192	0	96	48	2
TAP	79	192	4
STR	79	288	0
SI_	79	288	0	96	48	4
STR	79	288	7
SI_	79	288	7	96	48	3
TAP	80	0	0
TAP	80	0	7
STR	80	96	0
SI_	80	96	0	96	48	2
TAP	80	96	5
TAP	80	144	5
STR	80	192	0
SI_	80	192	0	96	48	4
TAP	80	192	4
TAP	80	288	0
STR	80	288	7
SI_	80	288	7	96	48	5
TAP	81	0	0
TAP	81	0	7
TAP	81	96	2
TAP	81	144	2
TAP	81	192	3
STR	81	192	7
SI_	81	192	7	96	48	5
TAP	81	288	0
STR	81	288	7
SI_	81	288	7	96	48	3
TAP	82	0	0
TAP	82	0	7
TAP	82	96	2
TAP	82	144	2
TAP	82	192	3
STR	82	192	7
SI_	82	192	7	96	48	5
HLD	82	288	1	48
STR	82	288	7
SI_	82	288	7	96	48	3
TAP	83	0	1
TAP	83	0	7
TAP	83	96	2
TAP	83	144	2
TAP	83	192	3
STR	83	192	7
SI_	83	192	7	96	48	5
STR	83	288	2
SI_	83	288	2	96	48	7
STR	83	288	7
SI_	83	288	7	96	48	3
TAP	84	0	2
TAP	84	0	7
TAP	84	96	2
TAP	84	144	2
TAP	84	192	3
STR	84	192	7
SI_	84	192	7	96	48	5
TAP	84	288	1
STR	84	288	7
SI_	84	288	7	96	48	3
TAP	85	0	0
TAP	85	0	7
TAP	85	96	2
TAP	85	144	2
TAP	85	192	5
TAP	85	240	4
TAP	85	288	6
TAP	85	336	2
TAP	86	0	3
TAP	86	48	1
TAP	86	96	5
TAP	86	144	4
TAP	86	192	7
TAP	86	240	2
TAP	86	288	3
TAP	86	336	0
TAP	87	0	6
TAP	87	48	4
TAP	87	96	7
TAP	87	144	1
TAP	87	192	3
TAP	87	240	0
TAP	87	288	6
TAP	87	336	5
TAP	88	0	7
BST	88	96	7
SV_	88	96	7	96	48	0
SV_	88	96	7	96	48	4

T_REC_TAP	523
T_REC_BRK	8
T_REC_XTP	0
T_REC_HLD	8
T_REC_XHO	0
T_REC_STR	165
T_REC_BST	3
T_REC_XST	0
T_REC_TTP	0
T_REC_THO	0
T_REC_SLD	169
T_REC_ALL	876
T_NUM_TAP	688
T_NUM_BRK	11
T_NUM_HLD	8
T_NUM_SLD	169
T_NUM_ALL	876
T_JUDGE_TAP	699
T_JUDGE_HLD	9
T_JUDGE_SLD	169
T_JUDGE_ALL	877
TTM_EACHPAIRS	158
TTM_SCR_TAP	344000
TTM_SCR_BRK	28600
TTM_SCR_HLD	8000
TTM_SCR_SLD	253500
TTM_SCR_ALL	634100
TTM_SCR_S	614050
TTM_SCR_SS	633000
TTM_RAT_ACV	10017

