VERSION	0.00.00	1.03.00
FES_MODE	0
BPM_DEF	200.000	200.000	200.000	200.000
MET_DEF	4	4
RESOLUTION	384
CLK_DEF	384
COMPATIBLE_CODE	MA2

BPM	0	0	200.000
MET	0	0	4	4

HLD	1	0	0	144
TAP	1	144	4
HLD	1	192	1	144
TAP	1	336	6
HLD	2	0	2	288
HLD	3	0	5	144
TAP	3	144	2
HLD	3	192	3	144
TAP	3	336	1
HLD	4	0	0	288
HLD	5	0	1	144
TAP	5	144	3
HLD	5	192	2	144
TAP	5	336	4
HLD	6	0	3	288
HLD	7	0	7	144
TAP	7	144	5
HLD	7	192	6	144
TAP	7	336	7
TAP	8	0	0
TAP	8	0	7
TAP	8	96	0
TAP	8	96	1
TAP	8	192	0
TAP	8	192	7
HLD	9	0	6	96
TAP	9	96	5
TAP	9	144	4
HLD	9	192	3	96
TAP	9	288	1
HLD	10	0	2	96
TAP	10	96	3
TAP	10	144	4
HLD	10	192	5	96
TAP	10	288	7
HLD	11	0	6	96
TAP	11	96	4
TAP	11	144	4
HLD	11	192	2	96
TAP	11	288	1
HLD	12	0	1	96
TAP	12	96	3
TAP	12	144	3
HLD	12	192	5	96
TAP	12	288	6
HLD	13	0	1	96
TAP	13	96	2
TAP	13	144	3
HLD	13	192	4	96
TAP	13	288	6
HLD	14	0	5	96
TAP	14	96	4
TAP	14	144	3
HLD	14	192	2	96
TAP	14	288	0
HLD	15	0	1	96
TAP	15	96	3
TAP	15	144	3
HLD	15	192	5	96
TAP	15	288	6
TAP	16	0	2
TAP	16	0	6
TAP	16	96	0
TAP	16	96	4
TAP	16	192	3
TAP	16	192	7
BRK	16	288	1
BRK	16	288	5
STR	17	0	3
SCR	17	0	3	96	48	6
TAP	17	0	7
TAP	17	96	0
TAP	17	144	1
TAP	17	192	2
TAP	17	240	3
TAP	17	288	4
STR	18	0	7
SI_	18	0	7	96	48	3
TAP	18	96	1
TAP	18	144	1
STR	18	192	3
SI_	18	192	3	96	48	7
HLD	19	0	6	144
TAP	19	144	4
HLD	19	192	3	144
TAP	19	336	1
HLD	20	0	0	144
TAP	20	144	1
TAP	20	192	2
TAP	20	240	3
TAP	20	288	4
TAP	20	336	5
HLD	21	0	6	96
TAP	21	96	7
TAP	21	192	0
TAP	21	192	7
TAP	21	288	1
TAP	21	336	2
TAP	22	0	1
TAP	22	48	0
TAP	22	96	7
TAP	22	144	6
TAP	22	192	5
TAP	22	240	4
TAP	22	288	3
HLD	23	0	1	96
TAP	23	96	0
TAP	23	192	6
TAP	23	192	7
TAP	23	288	5
TAP	23	336	5
TAP	24	0	3
TAP	24	48	4
TAP	24	96	3
TAP	24	144	5
TAP	24	192	6
STR	25	0	7
SCL	25	0	7	96	48	4
HLD	25	96	7	96
HLD	25	192	3	96
TAP	25	288	1
STR	26	0	0
SI_	26	0	0	96	48	4
TAP	26	96	2
TAP	26	144	2
STR	26	192	4
SI_	26	192	4	96	48	0
HLD	27	0	1	144
TAP	27	144	3
HLD	27	192	4	144
TAP	27	336	6
HLD	28	0	7	144
TAP	28	144	6
TAP	28	192	5
TAP	28	240	4
TAP	28	288	3
TAP	28	336	2
HLD	29	0	1	96
TAP	29	96	0
TAP	29	192	0
TAP	29	192	7
TAP	29	288	1
TAP	29	336	2
TAP	30	0	1
TAP	30	48	0
TAP	30	96	7
TAP	30	144	6
TAP	30	192	5
TAP	30	240	4
TAP	30	288	3
TAP	31	0	0
TAP	31	0	1
TAP	31	96	3
TAP	31	144	4
TAP	31	192	5
TAP	31	192	6
TAP	31	288	3
TAP	31	336	2
TAP	32	0	0
TAP	32	0	1
TAP	32	96	6
TAP	32	96	7
TAP	32	192	4
TAP	32	192	5
STR	32	288	3
SI_	32	288	3	96	672	7
TAP	33	0	6
TAP	33	96	6
TAP	33	192	0
TAP	33	288	0
TAP	34	0	5
TAP	34	96	5
TAP	34	192	1
STR	34	288	1
SI_	34	288	1	96	672	5
TAP	35	0	0
TAP	35	96	0
TAP	35	192	2
TAP	35	288	2
TAP	36	0	7
TAP	36	96	7
TAP	36	192	3
TAP	36	288	3
HLD	37	0	5	192
TAP	37	96	3
HLD	37	192	1	96
TAP	37	288	0
TAP	37	336	7
HLD	38	0	6	96
TAP	38	96	0
TAP	38	144	1
HLD	38	192	2	96
TAP	38	288	3
TAP	38	336	4
TAP	39	0	5
TAP	39	48	3
TAP	39	96	1
HLD	39	144	7	528
HLD	41	0	0	144
HLD	41	144	1	240
HLD	42	0	0	144
HLD	42	144	6	144
TAP	42	288	4
HLD	43	0	3	144
HLD	43	144	1	144
TAP	43	288	7
HLD	44	0	7	144
HLD	44	144	1	144
TAP	44	288	3
TAP	45	0	1
TAP	45	96	1
TAP	45	192	0
TAP	45	288	0
TAP	46	0	7
TAP	46	96	7
TAP	46	192	6
TAP	46	288	6
TAP	47	0	0
TAP	47	0	7
TAP	47	48	0
TAP	47	48	7
TAP	47	144	1
TAP	47	144	3
TAP	47	192	1
TAP	47	192	3
TAP	47	288	4
TAP	47	288	6
TAP	47	336	4
TAP	47	336	6
TAP	48	48	1
TAP	48	48	3
TAP	48	96	1
TAP	48	96	3
BRK	48	192	0
BRK	48	192	7
TAP	49	0	0
TAP	49	0	1
TAP	49	96	1
TAP	49	96	3
TAP	49	192	0
TAP	49	192	1
TAP	49	288	0
TAP	49	288	6
TAP	50	0	1
TAP	50	48	2
TAP	50	96	3
TAP	50	144	4
HLD	50	192	5	96
TAP	51	0	2
TAP	51	0	4
TAP	51	96	0
TAP	51	96	2
TAP	51	144	1
TAP	51	192	0
TAP	51	192	2
TAP	51	288	2
TAP	51	288	4
TAP	52	0	6
TAP	52	48	4
TAP	52	96	2
TAP	52	144	0
HLD	52	192	6	96
STR	53	0	0
SI_	53	0	0	96	48	4
TAP	53	96	0
TAP	53	144	7
TAP	53	192	6
TAP	53	240	5
TAP	53	288	4
TAP	53	336	3
STR	54	0	2
SI_	54	0	2	96	48	6
TAP	54	96	6
TAP	54	144	7
TAP	54	192	0
TAP	54	240	1
TAP	54	288	2
TAP	54	336	3
STR	55	0	4
SI_	55	0	4	96	48	0
TAP	55	96	0
TAP	55	144	7
TAP	55	192	6
TAP	55	240	5
TAP	55	288	4
TAP	55	336	3
BRK	56	0	0
BRK	56	0	2
BRK	56	96	5
BRK	56	96	7
BRK	56	192	2
BRK	56	192	4
BRK	56	288	1
BRK	56	288	7
STR	57	0	0
SCR	57	0	0	96	48	3
TAP	57	0	6
TAP	57	96	7
TAP	57	144	0
STR	57	192	1
SCL	57	192	1	96	48	6
TAP	57	192	3
TAP	57	288	2
TAP	57	336	1
TAP	58	0	5
STR	58	0	7
SCR	58	0	7	96	48	2
TAP	58	96	6
TAP	58	144	7
STR	58	192	0
SCL	58	192	0	96	48	5
TAP	58	192	2
TAP	58	288	1
TAP	58	336	0
STR	59	0	7
SI_	59	0	7	96	48	2
TAP	59	96	5
TAP	59	144	4
STR	59	192	3
SI_	59	192	3	96	48	6
STR	60	0	0
SI_	60	0	0	96	48	5
TAP	60	96	2
TAP	60	144	3
STR	60	192	4
SI_	60	192	4	96	48	1
HLD	61	0	2	96
TAP	61	96	3
TAP	61	144	4
TAP	61	192	5
TAP	61	240	6
TAP	61	288	7
TAP	61	336	0
HLD	62	0	0	96
TAP	62	96	7
TAP	62	144	6
TAP	62	192	5
TAP	62	240	4
TAP	62	288	3
TAP	62	336	2
STR	63	0	1
SI_	63	0	1	96	48	5
STR	63	96	2
SI_	63	96	2	96	48	6
STR	63	192	3
SI_	63	192	3	96	48	7
TAP	64	0	7
TAP	64	48	5
TAP	64	96	3
TAP	64	144	1
TAP	64	192	0
TAP	64	192	7
BRK	64	288	6
BRK	64	288	7
STR	65	0	7
SI_	65	0	7	96	48	3
TAP	65	96	1
TAP	65	144	1
STR	65	192	3
SI_	65	192	3	96	48	6
STR	66	0	6
SI_	66	0	6	96	48	2
TAP	66	96	3
TAP	66	144	3
STR	66	192	2
SI_	66	192	2	96	48	7
STR	67	0	0
SI_	67	0	0	96	48	5
TAP	67	96	6
TAP	67	144	6
STR	67	192	5
SI_	67	192	5	96	48	1
STR	68	0	1
SI_	68	0	1	96	48	4
TAP	68	96	5
TAP	68	144	5
STR	68	192	4
SI_	68	192	4	96	48	0
HLD	69	0	7	96
TAP	69	96	6
TAP	69	144	6
HLD	69	192	5	96
TAP	69	288	6
TAP	69	336	7
TAP	70	0	6
TAP	70	48	4
TAP	70	96	5
TAP	70	144	3
TAP	70	192	4
TAP	70	240	2
TAP	70	288	3
TAP	70	336	1
HLD	71	0	0	96
TAP	71	96	1
TAP	71	144	1
HLD	71	192	2	96
TAP	71	288	1
TAP	71	336	0
TAP	72	0	1
TAP	72	48	2
TAP	72	96	3
TAP	72	144	4
HLD	72	192	5	96
BRK	72	288	7
HLD	73	0	0	192
TAP	73	96	1
TAP	73	144	1
TAP	73	192	1
TAP	73	288	0
TAP	73	288	7
HLD	74	0	7	192
TAP	74	96	6
TAP	74	144	6
TAP	74	192	6
TAP	74	288	0
TAP	74	288	7
HLD	75	0	1	192
TAP	75	96	2
TAP	75	144	2
TAP	75	192	2
TAP	75	288	0
TAP	75	288	7
HLD	76	0	6	192
TAP	76	96	5
TAP	76	144	5
TAP	76	192	5
TAP	76	288	0
TAP	76	288	7
HLD	77	0	0	96
TAP	77	96	1
TAP	77	192	0
TAP	77	192	7
TAP	77	288	6
TAP	77	336	5
TAP	78	0	6
TAP	78	48	7
TAP	78	96	0
TAP	78	144	1
TAP	78	192	2
TAP	78	240	3
TAP	78	288	4
HLD	79	0	6	96
TAP	79	96	7
TAP	79	192	0
TAP	79	192	1
TAP	79	288	2
TAP	79	336	2
TAP	80	0	4
TAP	80	48	3
TAP	80	96	4
TAP	80	144	2
TAP	80	192	1
HLD	81	0	7	192
TAP	81	96	6
TAP	81	144	6
TAP	81	192	6
TAP	81	288	0
TAP	81	288	7
HLD	82	0	0	192
TAP	82	96	1
TAP	82	144	1
TAP	82	192	1
TAP	82	288	0
TAP	82	288	7
HLD	83	0	6	192
TAP	83	96	5
TAP	83	144	5
TAP	83	192	5
TAP	83	288	0
TAP	83	288	7
HLD	84	0	1	192
TAP	84	96	2
TAP	84	144	2
TAP	84	192	2
TAP	84	288	0
TAP	84	288	7
HLD	85	0	7	96
TAP	85	96	6
TAP	85	192	0
TAP	85	192	7
TAP	85	288	1
TAP	85	336	2
TAP	86	0	1
TAP	86	48	0
TAP	86	96	7
TAP	86	144	6
TAP	86	192	5
TAP	86	240	4
TAP	86	288	3
HLD	87	0	1	96
TAP	87	96	0
TAP	87	192	6
TAP	87	192	7
TAP	87	288	5
TAP	87	336	5
BRK	88	0	0
BRK	88	0	4
BRK	88	96	1
BRK	88	96	5
BRK	88	192	2
BRK	88	192	6

T_REC_TAP	350
T_REC_BRK	21
T_REC_XTP	0
T_REC_HLD	70
T_REC_XHO	0
T_REC_STR	30
T_REC_BST	0
T_REC_XST	0
T_REC_TTP	0
T_REC_THO	0
T_REC_SLD	30
T_REC_ALL	501
T_NUM_TAP	380
T_NUM_BRK	21
T_NUM_HLD	70
T_NUM_SLD	30
T_NUM_ALL	501
T_JUDGE_TAP	401
T_JUDGE_HLD	203
T_JUDGE_SLD	30
T_JUDGE_ALL	634
TTM_EACHPAIRS	58
TTM_SCR_TAP	190000
TTM_SCR_BRK	54600
TTM_SCR_HLD	70000
TTM_SCR_SLD	45000
TTM_SCR_ALL	359600
TTM_SCR_S	346800
TTM_SCR_SS	357500
TTM_RAT_ACV	10058

