VERSION	0.00.00	1.03.00
FES_MODE	0
BPM_DEF	200.000	200.000	200.000	200.000
MET_DEF	4	4
RESOLUTION	384
CLK_DEF	384
COMPATIBLE_CODE	MA2

BPM	0	0	200.000
MET	0	0	4	4

HLD	1	0	0	192
HLD	1	192	2	192
HLD	2	0	1	192
TAP	2	96	3
TAP	2	192	3
HLD	3	0	7	192
HLD	3	192	5	192
HLD	4	0	6	192
TAP	4	96	4
TAP	4	192	4
HLD	5	0	2	192
HLD	5	192	0	192
HLD	6	0	1	192
TAP	6	96	3
TAP	6	192	3
HLD	7	0	5	192
HLD	7	192	7	192
HLD	8	0	6	96
STR	8	96	4
SI_	8	96	4	96	96	0
TAP	9	0	5
TAP	9	0	7
TAP	9	96	6
TAP	9	192	2
TAP	9	240	3
TAP	9	288	2
TAP	10	0	0
TAP	10	0	2
TAP	10	96	1
TAP	10	192	5
TAP	10	240	4
TAP	10	288	5
TAP	11	0	4
TAP	11	0	6
TAP	11	96	5
TAP	11	192	1
TAP	11	240	0
TAP	11	288	1
TAP	12	0	1
TAP	12	0	3
TAP	12	96	2
TAP	12	192	6
TAP	12	240	7
TAP	12	288	6
TAP	13	0	5
HLD	13	0	7	96
TAP	13	96	6
TAP	13	192	2
TAP	13	240	3
TAP	13	288	2
HLD	14	0	0	96
TAP	14	0	2
TAP	14	96	1
TAP	14	192	5
TAP	14	240	4
TAP	14	288	5
HLD	15	0	4	96
TAP	15	0	6
TAP	15	96	5
TAP	15	192	1
TAP	15	240	0
TAP	15	288	1
TAP	16	0	1
HLD	16	0	3	96
TAP	16	96	2
BRK	16	192	5
BRK	16	192	7
TAP	17	0	4
TAP	17	0	5
TAP	17	96	6
TAP	17	144	6
TAP	17	192	4
TAP	17	192	5
TAP	17	288	3
TAP	18	0	2
TAP	18	0	3
TAP	18	96	1
TAP	18	144	1
TAP	18	192	2
TAP	18	192	3
TAP	18	288	4
TAP	19	0	5
TAP	19	0	6
TAP	19	96	7
TAP	19	144	7
TAP	19	192	5
TAP	19	192	6
TAP	19	288	4
TAP	20	0	1
TAP	20	0	2
TAP	20	96	0
TAP	20	144	0
TAP	20	192	1
TAP	20	192	2
TAP	20	288	3
TAP	21	0	3
TAP	21	0	5
TAP	21	96	4
TAP	21	144	4
TAP	21	192	3
TAP	21	192	5
TAP	21	288	7
TAP	22	0	2
TAP	22	0	4
TAP	22	96	3
TAP	22	144	3
TAP	22	192	2
TAP	22	192	4
TAP	22	288	0
TAP	23	0	5
TAP	23	0	7
TAP	23	96	6
TAP	23	144	6
TAP	23	192	5
TAP	23	192	7
TAP	23	288	3
TAP	24	0	0
TAP	24	0	2
TAP	24	96	1
TAP	24	144	1
TAP	24	192	0
TAP	24	192	2
TAP	24	288	4
HLD	25	0	3	96
TAP	25	96	2
TAP	25	144	2
HLD	25	192	5	96
TAP	25	288	7
HLD	26	0	4	96
TAP	26	96	5
TAP	26	144	5
HLD	26	192	2	96
TAP	26	288	0
HLD	27	0	1	96
TAP	27	96	2
TAP	27	144	2
HLD	27	192	0	96
TAP	27	288	1
HLD	28	0	6	96
TAP	28	96	5
TAP	28	144	5
HLD	28	192	7	96
TAP	28	288	6
HLD	29	0	6	96
TAP	29	96	7
TAP	29	144	7
TAP	29	192	4
TAP	29	192	5
TAP	29	288	2
TAP	29	288	3
HLD	30	0	1	96
TAP	30	96	0
TAP	30	144	0
TAP	30	192	2
TAP	30	192	3
TAP	30	288	4
TAP	30	288	5
HLD	31	0	4	96
TAP	31	96	3
TAP	31	144	3
TAP	31	192	4
TAP	31	192	5
TAP	31	288	2
TAP	31	288	3
TAP	32	0	0
TAP	32	0	1
TAP	32	96	6
TAP	32	96	7
TAP	32	192	4
TAP	32	192	5
STR	32	288	0
SCL	32	288	0	96	192	5
HLD	33	0	1	384
HLD	34	0	3	96
HLD	34	96	4	96
TAP	34	192	3
STR	34	288	7
SCR	34	288	7	96	192	2
HLD	35	0	6	384
HLD	36	0	4	96
HLD	36	96	2	96
HLD	36	192	0	96
HLD	36	288	6	96
TAP	37	0	7
HLD	37	96	1	96
HLD	37	192	3	96
HLD	37	288	5	96
TAP	38	0	7
HLD	38	96	0	96
HLD	38	192	3	96
HLD	38	288	4	96
STR	39	0	7
SI_	39	0	7	96	192	3
HLD	39	96	0	288
HLD	41	0	0	288
TAP	41	96	7
TAP	41	192	6
TAP	41	288	5
HLD	42	0	7	288
TAP	42	96	0
TAP	42	192	1
TAP	42	288	2
HLD	43	0	0	288
TAP	43	96	6
TAP	43	192	5
TAP	43	288	4
HLD	44	0	7	288
TAP	44	96	1
TAP	44	192	2
TAP	44	288	3
HLD	45	0	1	288
TAP	45	96	6
TAP	45	192	7
TAP	45	288	0
HLD	46	0	6	288
TAP	46	96	1
TAP	46	192	0
TAP	46	288	7
TAP	47	0	1
TAP	47	0	3
TAP	47	48	2
TAP	47	144	4
TAP	47	144	6
TAP	47	192	5
TAP	47	288	0
TAP	47	288	7
TAP	47	336	0
TAP	47	336	7
STR	48	0	1
SI_	48	0	1	96	48	6
STR	48	96	7
SI_	48	96	7	96	48	4
BRK	48	192	1
HLD	49	0	7	192
TAP	49	144	4
TAP	49	192	4
HLD	49	288	1	96
TAP	50	0	2
HLD	50	96	6	96
TAP	50	192	5
TAP	50	288	0
TAP	50	336	1
TAP	51	0	2
TAP	51	96	7
TAP	51	144	6
TAP	51	192	5
HLD	51	288	2	96
HLD	52	0	6	96
STR	52	96	4
SI_	52	96	4	96	48	0
TAP	53	0	1
TAP	53	0	6
TAP	53	96	7
TAP	53	144	0
TAP	53	192	7
TAP	53	288	1
TAP	53	288	6
TAP	54	0	1
TAP	54	0	4
TAP	54	96	2
TAP	54	144	3
TAP	54	192	2
TAP	54	288	1
TAP	54	288	4
TAP	55	0	3
TAP	55	0	6
TAP	55	96	5
TAP	55	144	4
TAP	55	192	5
TAP	55	288	3
TAP	55	288	6
STR	56	0	0
SI_	56	0	0	96	48	5
STR	56	192	4
SI_	56	192	4	96	48	1
HLD	57	0	0	192
TAP	57	144	3
TAP	57	192	3
HLD	57	288	6	96
TAP	58	0	5
HLD	58	96	1	96
TAP	58	192	2
TAP	58	288	4
TAP	58	336	5
TAP	59	0	6
TAP	59	96	3
TAP	59	144	2
TAP	59	192	1
HLD	59	288	5	96
HLD	60	0	1	96
STR	60	96	3
SI_	60	96	3	96	48	7
TAP	61	0	0
TAP	61	0	4
TAP	61	96	1
TAP	61	144	3
TAP	61	192	1
TAP	61	288	2
TAP	61	288	6
TAP	62	0	3
TAP	62	0	7
TAP	62	96	6
TAP	62	144	4
TAP	62	192	6
TAP	62	288	1
TAP	62	288	5
STR	63	0	0
SI_	63	0	0	96	48	4
STR	63	192	6
SI_	63	192	6	96	48	2
BRK	64	0	0
BRK	64	0	4
STR	64	96	1
SI_	64	96	1	96	96	6
STR	64	96	5
SI_	64	96	5	96	96	2
TAP	65	0	1
TAP	65	96	0
TAP	65	144	0
TAP	65	192	5
TAP	65	288	4
TAP	65	288	5
TAP	66	0	6
TAP	66	96	7
TAP	66	144	7
TAP	66	192	2
TAP	66	288	2
TAP	66	288	3
TAP	67	0	1
TAP	67	96	0
TAP	67	144	0
TAP	67	192	5
TAP	67	288	4
TAP	67	288	5
TAP	68	0	6
TAP	68	96	7
TAP	68	144	7
TAP	68	192	2
TAP	68	288	2
TAP	68	288	3
TAP	69	0	4
TAP	69	96	5
TAP	69	144	5
TAP	69	192	0
TAP	69	288	0
TAP	69	288	1
TAP	70	0	3
TAP	70	96	2
TAP	70	144	2
TAP	70	192	7
TAP	70	288	6
TAP	70	288	7
TAP	71	0	4
TAP	71	96	5
TAP	71	144	5
TAP	71	192	0
TAP	71	288	0
TAP	71	288	1
TAP	72	0	5
TAP	72	0	7
TAP	72	96	0
TAP	72	96	2
TAP	72	192	3
TAP	72	192	4
HLD	73	96	1	96
HLD	73	192	2	96
HLD	73	288	3	96
HLD	74	0	4	192
TAP	74	96	5
HLD	74	192	3	192
TAP	74	288	2
HLD	75	0	4	192
HLD	75	192	5	192
HLD	76	0	6	960
TAP	76	192	7
STR	76	288	0
SI_	76	288	0	96	192	3
HLD	78	192	1	864
STR	78	288	7
SI_	78	288	7	96	192	4
TAP	80	192	2
TAP	80	288	2
HLD	81	96	6	96
HLD	81	192	5	96
HLD	81	288	4	96
HLD	82	0	3	192
TAP	82	96	2
HLD	82	192	4	192
TAP	82	288	5
HLD	83	0	3	192
HLD	83	192	2	192
HLD	84	0	1	1248
TAP	84	192	0
STR	84	288	7
SI_	84	288	7	96	192	4
STR	85	288	0
SI_	85	288	0	96	192	3
HLD	87	96	5	96
HLD	87	192	7	96
HLD	87	288	0	96
TAP	88	0	5
TAP	88	96	2
TAP	88	96	7
TAP	88	192	3
TAP	88	192	4

T_REC_TAP	286
T_REC_BRK	5
T_REC_XTP	0
T_REC_HLD	78
T_REC_XHO	0
T_REC_STR	18
T_REC_BST	0
T_REC_XST	0
T_REC_TTP	0
T_REC_THO	0
T_REC_SLD	18
T_REC_ALL	405
T_NUM_TAP	304
T_NUM_BRK	5
T_NUM_HLD	78
T_NUM_SLD	18
T_NUM_ALL	405
T_JUDGE_TAP	309
T_JUDGE_HLD	296
T_JUDGE_SLD	18
T_JUDGE_ALL	623
TTM_EACHPAIRS	62
TTM_SCR_TAP	152000
TTM_SCR_BRK	13000
TTM_SCR_HLD	78000
TTM_SCR_SLD	27000
TTM_SCR_ALL	270000
TTM_SCR_S	261450
TTM_SCR_SS	269500
TTM_RAT_ACV	10018

