VERSION	0.00.00	1.03.00
FES_MODE	0
BPM_DEF	200.000	200.000	200.000	200.000
MET_DEF	4	4
RESOLUTION	384
CLK_DEF	384
COMPATIBLE_CODE	MA2

BPM	0	0	200.000
MET	0	0	4	4

TAP	1	0	0
TAP	1	192	1
HLD	2	0	2	288
TAP	3	0	0
TAP	3	192	7
HLD	4	0	6	288
TAP	5	0	7
TAP	5	192	0
HLD	6	0	1	288
TAP	7	0	0
TAP	7	192	7
TAP	8	0	6
TAP	8	96	6
BRK	8	192	6
STR	9	0	5
SI_	9	0	5	96	192	1
STR	11	0	0
SI_	11	0	0	96	192	4
STR	13	0	3
SI_	13	0	3	96	192	7
STR	15	0	6
SI_	15	0	6	96	192	2
HLD	17	0	1	288
TAP	17	288	0
HLD	18	0	0	288
TAP	18	288	7
HLD	19	0	7	288
TAP	19	288	6
HLD	20	0	6	288
STR	20	288	5
SI_	20	288	5	96	192	1
STR	22	288	3
SI_	22	288	3	96	192	7
HLD	25	0	6	288
TAP	25	288	7
HLD	26	0	7	288
TAP	26	288	0
HLD	27	0	0	288
TAP	27	288	1
HLD	28	0	1	288
STR	28	288	2
SI_	28	288	2	96	192	6
TAP	31	0	4
TAP	31	192	2
TAP	32	0	0
TAP	32	96	0
TAP	32	192	0
STR	32	288	7
SI_	32	288	7	96	192	4
STR	34	288	3
SI_	34	288	3	96	192	0
TAP	37	0	7
TAP	37	192	1
TAP	38	0	3
HLD	38	192	5	192
TAP	39	0	7
BRK	39	144	7
HLD	41	0	0	144
HLD	42	0	1	144
HLD	43	0	2	144
HLD	44	0	3	144
TAP	45	0	4
TAP	45	192	3
TAP	46	0	2
TAP	46	192	1
HLD	47	0	0	384
TAP	48	0	7
TAP	48	96	7
BRK	48	192	0
BRK	48	192	7
TAP	49	0	7
TAP	49	96	7
TAP	49	192	6
TAP	49	288	6
TAP	50	0	5
TAP	50	96	5
TAP	50	192	4
HLD	51	0	3	288
TAP	52	0	2
TAP	52	0	3
TAP	52	96	2
TAP	52	96	3
TAP	52	192	1
TAP	52	192	2
HLD	53	0	3	384
HLD	54	0	4	384
HLD	55	0	5	384
HLD	56	0	6	288
TAP	57	0	7
TAP	57	96	7
TAP	57	192	6
TAP	57	288	6
TAP	58	0	5
TAP	58	96	5
TAP	58	192	4
TAP	59	0	2
TAP	59	96	2
TAP	59	192	4
TAP	59	288	4
TAP	60	0	6
TAP	60	0	7
TAP	60	96	6
TAP	60	96	7
TAP	60	192	6
TAP	60	192	7
STR	61	0	6
SCL	61	0	6	96	192	3
STR	62	0	0
SCR	62	0	0	96	192	3
HLD	63	0	6	192
HLD	64	0	7	192
TAP	64	192	0
TAP	64	288	0
TAP	64	288	7
STR	65	0	1
SI_	65	0	1	96	192	5
STR	67	0	4
SI_	67	0	4	96	192	0
STR	69	0	7
SI_	69	0	7	96	192	3
STR	71	0	2
SI_	71	0	2	96	192	6
HLD	73	0	7	288
TAP	73	288	0
HLD	74	0	0	288
TAP	74	288	1
HLD	75	0	1	288
TAP	75	288	2
HLD	76	0	2	288
STR	76	288	3
SI_	76	288	3	96	192	7
STR	78	288	6
SI_	78	288	6	96	192	2
HLD	81	0	1	288
TAP	81	288	0
HLD	82	0	0	288
TAP	82	288	7
HLD	83	0	7	288
TAP	83	288	6
HLD	84	0	6	288
STR	84	288	5
SI_	84	288	5	96	192	1
TAP	87	0	0
TAP	87	192	7
TAP	88	0	0
TAP	88	0	7
TAP	88	96	0
TAP	88	96	7
TAP	88	192	0
TAP	88	192	7

T_REC_TAP	78
T_REC_BRK	4
T_REC_XTP	0
T_REC_HLD	32
T_REC_XHO	0
T_REC_STR	18
T_REC_BST	0
T_REC_XST	0
T_REC_TTP	0
T_REC_THO	0
T_REC_SLD	18
T_REC_ALL	150
T_NUM_TAP	96
T_NUM_BRK	4
T_NUM_HLD	32
T_NUM_SLD	18
T_NUM_ALL	150
T_JUDGE_TAP	100
T_JUDGE_HLD	182
T_JUDGE_SLD	18
T_JUDGE_ALL	300
TTM_EACHPAIRS	11
TTM_SCR_TAP	48000
TTM_SCR_BRK	10400
TTM_SCR_HLD	32000
TTM_SCR_SLD	27000
TTM_SCR_ALL	117400
TTM_SCR_S	113500
TTM_SCR_SS	117000
TTM_RAT_ACV	10034

