VERSION	0.00.00	1.03.00
FES_MODE	0
BPM_DEF	200.000	200.000	200.000	200.000
MET_DEF	4	4
RESOLUTION	384
CLK_DEF	384
COMPATIBLE_CODE	MA2

BPM	0	0	200.000
MET	0	0	4	4

TAP	2	96	4
TAP	2	288	4
TAP	4	96	3
TAP	4	288	3
TAP	6	96	4
TAP	6	288	4
TAP	8	96	3
TAP	8	192	3
TAP	9	96	2
TAP	9	288	2
TAP	10	96	3
TAP	10	288	3
TAP	11	96	4
TAP	11	288	4
TAP	12	96	5
TAP	12	192	5
TAP	13	96	5
TAP	13	288	5
TAP	14	96	4
TAP	14	288	4
TAP	15	96	3
TAP	15	288	3
TAP	16	96	2
BRK	16	192	2
HLD	17	0	1	192
TAP	18	0	0
HLD	19	0	7	192
TAP	20	0	6
HLD	21	0	5	192
TAP	22	0	4
HLD	23	0	3	192
TAP	24	0	2
TAP	25	0	2
TAP	25	0	3
TAP	26	0	0
TAP	26	0	1
TAP	27	0	6
TAP	27	0	7
TAP	28	0	4
TAP	28	0	5
HLD	29	0	3	384
HLD	29	0	4	384
TAP	31	0	2
TAP	31	192	1
TAP	32	0	0
BRK	32	192	7
HLD	33	0	6	384
HLD	35	0	7	384
HLD	37	0	0	384
HLD	39	0	1	384
STR	41	0	0
SI_	41	0	0	96	288	3
STR	43	0	7
SI_	43	0	7	96	288	4
STR	45	0	0
SI_	45	0	0	96	288	4
TAP	47	0	3
TAP	47	192	2
TAP	48	0	1
BRK	48	192	0
BRK	48	192	7
TAP	49	0	0
TAP	49	192	1
TAP	50	0	7
TAP	50	192	6
TAP	51	0	5
TAP	51	192	4
TAP	52	0	3
TAP	52	192	3
TAP	52	192	4
TAP	53	0	1
TAP	53	96	1
TAP	53	192	1
TAP	54	0	6
TAP	54	96	6
TAP	54	192	6
TAP	55	0	0
TAP	55	192	0
TAP	56	0	7
TAP	56	96	7
BRK	56	192	7
TAP	57	0	0
TAP	57	192	0
TAP	58	0	0
TAP	58	0	1
TAP	58	192	0
TAP	58	192	1
TAP	59	0	7
TAP	59	192	7
TAP	60	0	6
TAP	60	0	7
TAP	60	192	6
TAP	60	192	7
TAP	61	0	1
TAP	61	96	1
TAP	61	192	0
TAP	62	0	7
TAP	62	96	7
TAP	62	192	6
TAP	63	0	5
TAP	63	96	5
TAP	63	192	4
TAP	64	0	3
TAP	64	96	4
TAP	64	192	3
BRK	64	288	3
BRK	64	288	4
TAP	65	96	5
TAP	65	288	5
TAP	66	96	4
TAP	66	288	4
TAP	67	96	3
TAP	67	288	3
TAP	68	96	2
TAP	68	192	2
TAP	69	96	2
TAP	69	288	2
TAP	70	96	3
TAP	70	288	3
TAP	71	96	4
TAP	71	288	4
TAP	72	96	5
BRK	72	192	5
TAP	73	0	6
TAP	74	0	7
TAP	75	0	0
TAP	76	0	1
STR	77	0	1
SI_	77	0	1	96	288	6
STR	79	0	5
SI_	79	0	5	96	288	2
TAP	81	0	2
TAP	81	0	3
TAP	82	0	0
TAP	82	0	1
TAP	83	0	6
TAP	83	0	7
TAP	84	0	4
TAP	84	0	5
HLD	85	0	3	384
HLD	85	0	4	384
TAP	87	0	5
TAP	87	192	6
TAP	88	0	7
TAP	88	96	7
BRK	88	192	0
BRK	88	192	7

T_REC_TAP	115
T_REC_BRK	10
T_REC_XTP	0
T_REC_HLD	12
T_REC_XHO	0
T_REC_STR	5
T_REC_BST	0
T_REC_XST	0
T_REC_TTP	0
T_REC_THO	0
T_REC_SLD	5
T_REC_ALL	147
T_NUM_TAP	120
T_NUM_BRK	10
T_NUM_HLD	12
T_NUM_SLD	5
T_NUM_ALL	147
T_JUDGE_TAP	130
T_JUDGE_HLD	80
T_JUDGE_SLD	5
T_JUDGE_ALL	215
TTM_EACHPAIRS	18
TTM_SCR_TAP	60000
TTM_SCR_BRK	26000
TTM_SCR_HLD	12000
TTM_SCR_SLD	7500
TTM_SCR_ALL	105500
TTM_SCR_S	101400
TTM_SCR_SS	104500
TTM_RAT_ACV	10095

