VERSION	0.00.00	1.03.00
FES_MODE	0
BPM_DEF	225.000	225.000	225.000	225.000
MET_DEF	4	4
RESOLUTION	384
CLK_DEF	384
COMPATIBLE_CODE	MA2

BPM	0	0	225.000
MET	0	0	4	4

TAP	2	0	0
TAP	2	0	4
TAP	3	288	2
TAP	3	288	7
TAP	4	0	4
TAP	4	0	6
TAP	5	288	0
TAP	5	288	5
TAP	6	0	1
TAP	6	0	3
TAP	7	288	3
TAP	7	288	6
STR	8	0	1
SI_	8	0	1	96	48	4
TAP	8	0	4
STR	8	192	7
SI_	8	192	7	96	48	2
STR	9	0	0
SI_	9	0	0	96	48	5
STR	9	192	6
SI_	9	192	6	96	48	3
TAP	10	0	7
TAP	10	96	6
TAP	10	192	5
STR	10	288	4
SI_	10	288	4	96	48	0
TAP	10	336	4
STR	11	48	2
SI_	11	48	2	96	48	6
TAP	11	96	2
TAP	11	192	1
TAP	11	288	3
TAP	12	0	0
TAP	12	96	1
TAP	12	192	2
STR	12	288	3
SI_	12	288	3	96	48	7
TAP	12	336	3
STR	13	48	5
SI_	13	48	5	96	48	1
TAP	13	96	5
TAP	13	192	7
TAP	13	288	5
TAP	14	0	7
TAP	14	96	6
TAP	14	192	5
STR	14	288	4
SI_	14	288	4	96	48	0
TAP	14	336	4
STR	15	48	2
SI_	15	48	2	96	48	6
TAP	15	96	2
HLD	15	192	1	96
TAP	15	288	3
TAP	16	0	0
TAP	16	96	1
TAP	16	192	2
STR	16	288	3
SI_	16	288	3	96	48	7
TAP	16	336	3
STR	17	48	5
SI_	17	48	5	96	48	1
TAP	17	96	5
HLD	17	192	6	96
TAP	17	288	4
HLD	18	0	7	96
HLD	18	96	6	96
HLD	18	192	5	96
STR	18	288	4
SI_	18	288	4	96	48	0
TAP	18	336	4
STR	19	48	2
SI_	19	48	2	96	48	6
TAP	19	96	2
TAP	19	192	1
TAP	19	288	3
HLD	20	0	0	96
HLD	20	96	1	96
HLD	20	192	2	96
STR	20	288	3
SI_	20	288	3	96	48	7
TAP	20	336	3
STR	21	48	5
SI_	21	48	5	96	48	1
TAP	21	96	5
TAP	21	192	7
TAP	21	288	5
HLD	22	0	7	96
HLD	22	96	6	96
HLD	22	192	5	96
STR	22	288	4
SI_	22	288	4	96	48	0
TAP	22	336	4
STR	23	48	2
SI_	23	48	2	96	48	6
TAP	23	96	2
HLD	23	192	1	96
TAP	23	288	3
HLD	24	0	0	96
HLD	24	96	1	96
HLD	24	192	2	96
STR	24	288	3
SI_	24	288	3	96	48	7
TAP	24	336	3
STR	25	48	5
SI_	25	48	5	96	48	1
TAP	25	96	5
BRK	25	192	6
TAP	26	0	6
TAP	26	48	7
TAP	26	96	6
TAP	26	144	5
STR	26	192	6
SCL	26	192	6	96	48	3
TAP	27	0	1
TAP	27	48	0
TAP	27	96	1
TAP	27	144	2
STR	27	192	1
SCR	27	192	1	96	48	4
TAP	28	0	6
TAP	28	48	7
TAP	28	96	6
TAP	28	144	5
STR	28	192	6
SCL	28	192	6	96	96	3
STR	28	288	3
SCL	28	288	3	96	96	0
STR	29	0	0
SCL	29	0	0	96	96	5
STR	29	96	5
SCL	29	96	5	96	96	2
STR	29	192	2
SCL	29	192	2	96	96	7
STR	29	288	7
SCL	29	288	7	96	96	4
BRK	30	0	4
TAP	30	144	1
TAP	30	192	2
TAP	30	240	3
TAP	30	336	7
TAP	31	0	6
TAP	31	48	5
TAP	31	144	3
HLD	31	192	2	96
HLD	31	288	1	96
STR	32	0	0
SI_	32	0	0	96	48	5
STR	32	96	7
SI_	32	96	7	96	48	2
TAP	32	144	7
STR	32	240	1
SI_	32	240	1	96	48	4
TAP	32	288	1
STR	33	0	6
SI_	33	0	6	96	48	3
TAP	33	48	6
TAP	33	144	0
TAP	33	192	0
BRK	33	288	1
BRK	33	288	6
TAP	34	0	1
TAP	34	48	0
TAP	34	96	1
TAP	34	144	2
STR	34	192	1
SCR	34	192	1	96	48	4
TAP	35	0	5
TAP	35	48	4
TAP	35	96	5
TAP	35	144	6
STR	35	192	5
SCR	35	192	5	96	48	0
TAP	36	0	1
TAP	36	48	0
TAP	36	96	1
TAP	36	144	2
STR	36	192	1
SCR	36	192	1	96	96	4
STR	36	288	4
SCR	36	288	4	96	96	7
STR	37	0	7
SCR	37	0	7	96	96	2
STR	37	96	2
SCR	37	96	2	96	96	5
STR	37	192	5
SCR	37	192	5	96	96	0
STR	37	288	0
SCR	37	288	0	96	96	3
BRK	38	0	3
TAP	38	144	6
TAP	38	192	5
TAP	38	240	4
TAP	38	336	0
TAP	39	0	1
TAP	39	48	2
TAP	39	144	4
HLD	39	192	5	96
HLD	39	288	6	96
STR	40	0	7
SI_	40	0	7	96	48	2
STR	40	96	0
SI_	40	96	0	96	48	5
TAP	40	144	0
STR	40	240	6
SI_	40	240	6	96	48	3
TAP	40	288	6
STR	41	0	1
SI_	41	0	1	96	48	4
TAP	41	48	1
TAP	41	144	7
TAP	41	192	7
BRK	41	288	1
BRK	41	288	6
STR	42	0	0
SI_	42	0	0	96	48	5
STR	42	144	7
SI_	42	144	7	96	48	3
STR	42	288	4
SI_	42	288	4	96	48	0
STR	43	48	2
SI_	43	48	2	96	48	7
TAP	43	192	1
TAP	43	288	0
STR	44	0	7
SI_	44	0	7	96	48	2
STR	44	144	0
SI_	44	144	0	96	48	4
STR	44	288	3
SI_	44	288	3	96	48	7
STR	45	48	5
SI_	45	48	5	96	48	0
TAP	45	192	6
TAP	45	288	7
STR	46	0	1
SCR	46	0	1	96	48	4
STR	46	144	7
SCR	46	144	7	96	48	2
STR	46	288	5
SCR	46	288	5	96	48	0
STR	47	48	3
SCR	47	48	3	96	48	6
HLD	47	192	2	96
HLD	47	288	0	96
STR	48	0	6
SCL	48	0	6	96	48	3
STR	48	144	0
SCL	48	144	0	96	48	5
STR	48	288	2
SCL	48	288	2	96	48	7
STR	49	48	4
SCL	49	48	4	96	48	1
HLD	49	192	5	96
HLD	49	288	7	96
STR	50	0	0
SI_	50	0	0	96	48	4
STR	50	144	6
SCL	50	144	6	96	48	3
STR	50	288	7
SCR	50	288	7	96	48	2
STR	51	48	3
SI_	51	48	3	96	48	7
TAP	51	192	0
TAP	51	288	1
STR	52	0	7
SI_	52	0	7	96	48	3
STR	52	144	1
SCR	52	144	1	96	48	4
STR	52	288	0
SCL	52	288	0	96	48	5
STR	53	48	4
SI_	53	48	4	96	48	0
TAP	53	192	6
TAP	53	288	7
STR	54	0	0
SI_	54	0	0	96	48	4
STR	54	144	3
SCR	54	144	3	96	48	6
STR	54	288	2
SCL	54	288	2	96	48	7
STR	55	48	3
SI_	55	48	3	96	48	7
STR	55	192	0
SCL	55	192	0	96	48	5
STR	56	0	3
SI_	56	0	3	96	48	7
STR	56	192	4
SI_	56	192	4	96	48	0
BRK	57	0	1
BRK	57	0	6
HLD	57	240	7	96
TAP	57	336	0
TAP	58	0	1
TAP	58	48	2
TAP	58	96	3
TAP	58	144	4
TAP	58	192	5
TAP	58	288	1
STR	58	336	1
SI_	58	336	1	96	48	5
STR	59	48	6
SCL	59	48	6	96	48	3
STR	59	144	0
SCR	59	144	0	96	48	3
TAP	59	336	7
TAP	60	0	6
TAP	60	48	5
TAP	60	96	4
TAP	60	144	3
TAP	60	192	2
TAP	60	288	6
STR	60	336	6
SI_	60	336	6	96	48	2
STR	61	48	1
SCR	61	48	1	96	48	4
STR	61	144	7
SCL	61	144	7	96	48	4
STR	61	336	1
SCR	61	336	1	96	48	4
TAP	62	0	1
STR	62	96	5
SCR	62	96	5	96	48	0
TAP	62	144	5
STR	62	240	1
SCR	62	240	1	96	48	4
TAP	62	288	1
TAP	63	96	5
TAP	63	192	0
TAP	63	288	7
STR	64	0	6
SCL	64	0	6	96	48	3
STR	64	96	2
SCL	64	96	2	96	48	7
TAP	64	144	2
STR	64	240	6
SCL	64	240	6	96	48	3
TAP	64	288	6
STR	65	96	0
SI_	65	96	0	96	48	4
STR	65	96	1
SI_	65	96	1	96	48	4
TAP	66	0	0
TAP	66	48	1
TAP	66	96	2
TAP	66	144	3
TAP	66	192	4
TAP	66	288	6
STR	66	336	6
SI_	66	336	6	96	48	2
STR	67	48	4
SCL	67	48	4	96	48	1
STR	67	144	7
SCL	67	144	7	96	48	4
TAP	67	336	0
TAP	68	0	7
TAP	68	48	6
TAP	68	96	5
TAP	68	144	4
TAP	68	192	3
TAP	68	288	1
STR	68	336	1
SI_	68	336	1	96	48	5
STR	69	48	3
SCR	69	48	3	96	48	6
STR	69	144	0
SCR	69	144	0	96	48	3
STR	69	336	5
SCR	69	336	5	96	48	0
TAP	70	0	5
STR	70	96	1
SCR	70	96	1	96	48	4
TAP	70	144	1
STR	70	240	5
SCR	70	240	5	96	48	0
TAP	70	288	5
TAP	71	96	5
TAP	71	192	6
TAP	71	288	7
STR	72	0	2
SCL	72	0	2	96	48	7
STR	72	96	6
SCL	72	96	6	96	48	3
TAP	72	144	6
STR	72	240	2
SCL	72	240	2	96	48	7
TAP	72	288	2
HLD	73	96	0	96
HLD	73	192	1	96
TAP	73	288	2
STR	74	0	7
SI_	74	0	7	96	48	2
TAP	74	96	7
STR	74	192	0
SI_	74	192	0	96	48	5
TAP	74	288	0
STR	75	0	6
SI_	75	0	6	96	48	3
TAP	75	96	6
STR	75	192	1
SI_	75	192	1	96	48	4
TAP	75	288	1
STR	76	0	7
SI_	76	0	7	96	48	2
TAP	76	96	7
STR	76	192	0
SI_	76	192	0	96	48	5
TAP	76	288	0
STR	77	0	6
SI_	77	0	6	96	48	3
TAP	77	96	6
STR	77	192	1
SI_	77	192	1	96	48	4
BRK	77	288	1
TAP	78	0	3
TAP	78	0	6
TAP	78	144	1
TAP	78	144	4
TAP	78	288	0
TAP	78	288	7
BRK	79	0	1
BRK	79	0	6
STR	80	0	0
SI_	80	0	0	96	48	5
STR	80	96	7
SI_	80	96	7	96	48	2
STR	80	192	1
SI_	80	192	1	96	48	4
STR	80	288	6
SI_	80	288	6	96	48	3
STR	81	0	0
SI_	81	0	0	96	48	5
BRK	81	192	7
BRK	81	288	0
BRK	81	288	6
STR	82	0	7
SI_	82	0	7	96	48	4
STR	82	96	2
SI_	82	96	2	96	48	5
STR	82	192	6
SI_	82	192	6	96	48	1
STR	82	288	0
SI_	82	288	0	96	48	3
STR	83	0	5
SI_	83	0	5	96	48	2
BRK	83	192	0
BRK	83	288	1
BRK	83	288	7
STR	84	0	0
SI_	84	0	0	96	48	4
STR	84	96	7
SI_	84	96	7	96	48	3
STR	84	192	5
SI_	84	192	5	96	48	1
STR	84	288	2
SI_	84	288	2	96	48	6
STR	85	0	4
SI_	85	0	4	96	48	0
BRK	85	192	5
BRK	85	288	4
BRK	85	288	6
STR	86	0	1
SI_	86	0	1	96	48	4
STR	86	96	7
SI_	86	96	7	96	48	2
STR	86	192	0
SI_	86	192	0	96	48	5
STR	86	288	6
SI_	86	288	6	96	48	3
STR	87	0	2
SI_	87	0	2	96	48	7
BRK	87	192	3
BRK	87	288	2
BRK	87	288	4
STR	88	0	1
SCR	88	0	1	96	48	4
STR	88	96	0
SI_	88	96	0	96	48	3
STR	88	192	7
SCR	88	192	7	96	48	2
STR	88	288	6
SCL	88	288	6	96	48	3
STR	89	0	0
SI_	89	0	0	96	48	4
BRK	89	192	6
BRK	89	288	5
BRK	89	288	7
STR	90	0	6
SCL	90	0	6	96	48	3
STR	90	96	7
SI_	90	96	7	96	48	4
STR	90	192	0
SCL	90	192	0	96	48	5
STR	90	288	1
SCR	90	288	1	96	48	4
STR	91	0	7
SI_	91	0	7	96	48	3
BRK	91	192	2
BRK	91	288	1
BRK	91	288	3
STR	92	0	0
SI_	92	0	0	96	48	4
STR	92	96	6
SCL	92	96	6	96	48	3
STR	92	192	7
SCR	92	192	7	96	48	2
STR	92	288	3
SI_	92	288	3	96	48	7
STR	93	0	4
SI_	93	0	4	96	48	0
BRK	93	192	1
BRK	93	288	0
BRK	93	288	2
STR	94	0	6
SCL	94	0	6	96	96	3
STR	94	96	3
SCL	94	96	3	96	96	0
STR	94	192	0
SCL	94	192	0	96	96	5
STR	94	288	5
SCL	94	288	5	96	96	2
STR	95	0	2
SCL	95	0	2	96	96	7
STR	95	96	7
SCL	95	96	7	96	96	4
STR	95	192	4
SI_	95	192	4	96	48	0
BRK	95	288	0
TAP	96	0	1
TAP	96	48	2
TAP	96	96	3
TAP	96	144	4
TAP	96	192	5
TAP	96	288	1
STR	96	336	1
SI_	96	336	1	96	48	6
STR	97	48	5
SI_	97	48	5	96	48	2
STR	97	144	1
SCR	97	144	1	96	48	4
TAP	97	336	7
TAP	98	0	6
TAP	98	48	5
TAP	98	96	4
TAP	98	144	3
TAP	98	192	2
TAP	98	288	6
STR	98	336	6
SI_	98	336	6	96	48	1
STR	99	48	2
SI_	99	48	2	96	48	5
STR	99	144	6
SCL	99	144	6	96	48	3
STR	99	336	1
SCR	99	336	1	96	48	4
TAP	100	0	1
STR	100	96	6
SCR	100	96	6	96	48	1
TAP	100	144	6
STR	100	240	3
SCR	100	240	3	96	48	6
TAP	100	288	3
TAP	101	96	2
TAP	101	192	3
TAP	101	288	4
STR	102	0	5
SCL	102	0	5	96	48	2
STR	102	96	0
SCL	102	96	0	96	48	5
TAP	102	144	0
STR	102	240	3
SCL	102	240	3	96	48	0
TAP	102	288	3
STR	103	96	6
SI_	103	96	6	96	48	3
STR	103	96	7
SI_	103	96	7	96	48	3
TAP	104	0	0
TAP	104	48	1
TAP	104	96	2
TAP	104	144	3
TAP	104	192	4
TAP	104	288	6
STR	104	336	6
SI_	104	336	6	96	48	1
STR	105	48	0
SI_	105	48	0	96	48	3
STR	105	144	4
SCL	105	144	4	96	48	1
TAP	105	336	0
TAP	106	0	7
TAP	106	48	6
TAP	106	96	5
TAP	106	144	4
TAP	106	192	3
TAP	106	288	1
STR	106	336	1
SI_	106	336	1	96	48	6
STR	107	48	7
SI_	107	48	7	96	48	4
STR	107	144	3
SCR	107	144	3	96	48	6
STR	107	336	7
SCR	107	336	7	96	48	2
TAP	108	0	7
STR	108	96	4
SCR	108	96	4	96	48	7
TAP	108	144	4
STR	108	240	1
SCR	108	240	1	96	48	4
TAP	108	288	1
TAP	109	96	5
TAP	109	192	6
TAP	109	288	7
STR	110	0	0
SCL	110	0	0	96	48	5
STR	110	96	3
SCL	110	96	3	96	48	0
TAP	110	144	3
STR	110	240	6
SCL	110	240	6	96	48	3
TAP	110	288	6
HLD	111	96	0	96
HLD	111	192	1	96
TAP	111	288	2
STR	112	0	7
SI_	112	0	7	96	48	2
TAP	112	96	7
STR	112	192	0
SI_	112	192	0	96	48	5
TAP	112	288	0
STR	113	0	6
SI_	113	0	6	96	48	3
TAP	113	96	6
STR	113	192	1
SI_	113	192	1	96	48	4
TAP	113	288	1
STR	114	0	7
SI_	114	0	7	96	48	2
TAP	114	96	7
STR	114	192	0
SI_	114	192	0	96	48	5
TAP	114	288	0
STR	115	0	6
SI_	115	0	6	96	48	3
TAP	115	96	6
STR	115	192	1
SI_	115	192	1	96	48	4
BRK	115	288	1
STR	116	0	6
SCL	116	0	6	96	48	3
TAP	116	96	6
STR	116	192	0
SCL	116	192	0	96	48	5
TAP	116	288	0
STR	117	0	2
SCL	117	0	2	96	48	7
TAP	117	96	2
STR	117	192	4
SCL	117	192	4	96	48	1
TAP	117	288	4
STR	118	0	0
SCR	118	0	0	96	48	3
TAP	118	96	0
STR	118	192	6
SCR	118	192	6	96	48	1
TAP	118	288	6
STR	119	0	4
SCR	119	0	4	96	48	7
TAP	119	96	4
STR	119	192	2
SCR	119	192	2	96	48	5
BRK	119	288	2
STR	120	0	3
SCL	120	0	3	96	96	0
STR	120	0	6
SCL	120	0	6	96	96	3
STR	120	288	1
SCR	120	288	1	96	48	4
STR	120	288	4
SCR	120	288	4	96	48	7
BRK	121	0	1
BRK	121	0	4
STR	122	0	0
SCR	122	0	0	96	96	3
STR	122	0	5
SCR	122	0	5	96	96	0
STR	122	288	2
SCL	122	288	2	96	48	7
STR	122	288	7
SCL	122	288	7	96	48	4
BRK	123	0	2
BRK	123	0	7
TAP	123	96	1
TAP	123	192	6
BRK	123	288	0
BRK	123	288	7
STR	124	0	3
SCR	124	0	3	96	48	6
STR	124	0	4
SCL	124	0	4	96	48	1
STR	124	288	0
SCL	124	288	0	96	48	5
STR	124	288	7
SCR	124	288	7	96	48	2
BRK	125	0	0
BRK	125	0	7
BRK	125	192	1
BRK	125	192	6

T_REC_TAP	224
T_REC_BRK	46
T_REC_XTP	0
T_REC_HLD	28
T_REC_XHO	0
T_REC_STR	205
T_REC_BST	0
T_REC_XST	0
T_REC_TTP	0
T_REC_THO	0
T_REC_SLD	205
T_REC_ALL	708
T_NUM_TAP	429
T_NUM_BRK	46
T_NUM_HLD	28
T_NUM_SLD	205
T_NUM_ALL	708
T_JUDGE_TAP	475
T_JUDGE_HLD	56
T_JUDGE_SLD	205
T_JUDGE_ALL	736
TTM_EACHPAIRS	34
TTM_SCR_TAP	214500
TTM_SCR_BRK	119600
TTM_SCR_HLD	28000
TTM_SCR_SLD	307500
TTM_SCR_ALL	669600
TTM_SCR_S	645050
TTM_SCR_SS	665000
TTM_RAT_ACV	10069

