VERSION	0.00.00	1.03.00
FES_MODE	0
BPM_DEF	225.000	225.000	225.000	225.000
MET_DEF	4	4
RESOLUTION	384
CLK_DEF	384
COMPATIBLE_CODE	MA2

BPM	0	0	225.000
MET	0	0	4	4

TAP	2	0	0
TAP	2	0	1
TAP	3	288	6
TAP	3	288	7
TAP	4	0	6
TAP	4	0	7
TAP	5	288	2
TAP	5	288	3
TAP	6	0	2
TAP	6	0	3
TAP	7	288	4
TAP	7	288	5
TAP	8	0	4
TAP	8	0	5
TAP	8	192	2
TAP	8	192	3
TAP	9	0	0
TAP	9	0	1
BRK	9	192	6
BRK	9	192	7
TAP	10	0	0
TAP	10	96	1
TAP	10	192	2
TAP	10	288	4
TAP	10	336	4
TAP	11	48	3
TAP	11	96	3
TAP	11	192	5
TAP	11	288	6
TAP	12	0	7
TAP	12	96	6
TAP	12	192	5
TAP	12	288	3
TAP	12	336	3
TAP	13	48	4
TAP	13	96	4
TAP	13	192	2
TAP	13	288	1
TAP	14	0	0
TAP	14	96	1
TAP	14	192	2
TAP	14	192	3
TAP	14	288	2
TAP	14	336	3
TAP	15	48	5
TAP	15	96	4
TAP	15	192	6
TAP	15	288	0
TAP	15	288	7
TAP	16	0	7
TAP	16	96	6
TAP	16	192	4
TAP	16	192	5
TAP	16	288	5
TAP	16	336	4
TAP	17	48	2
TAP	17	96	3
TAP	17	192	1
TAP	17	192	6
TAP	17	288	0
TAP	17	288	7
HLD	18	0	1	192
TAP	18	96	0
TAP	18	192	0
TAP	18	288	6
TAP	18	336	7
TAP	19	48	3
TAP	19	96	2
TAP	19	192	4
TAP	19	192	5
TAP	19	288	4
TAP	19	288	5
HLD	20	0	6	192
TAP	20	96	7
TAP	20	192	7
TAP	20	288	1
TAP	20	336	0
TAP	21	48	4
TAP	21	96	5
TAP	21	192	2
TAP	21	192	3
TAP	21	288	2
TAP	21	288	3
HLD	22	0	2	192
TAP	22	0	3
TAP	22	96	4
TAP	22	192	5
TAP	22	288	1
TAP	22	336	6
TAP	23	48	0
TAP	23	96	7
STR	23	192	0
SI_	23	192	0	96	96	4
HLD	24	0	5	192
TAP	24	96	3
TAP	24	192	2
TAP	24	288	6
TAP	24	336	1
TAP	25	48	7
TAP	25	96	0
BRK	25	192	0
BRK	25	192	7
BRK	25	288	0
BRK	25	288	7
TAP	26	0	0
TAP	26	96	0
TAP	26	192	2
TAP	26	288	2
TAP	27	0	4
TAP	27	96	4
TAP	27	192	6
TAP	27	288	6
TAP	28	0	7
TAP	28	96	6
TAP	28	192	5
TAP	28	288	4
TAP	29	0	3
TAP	29	96	2
TAP	29	192	1
TAP	29	288	0
STR	30	0	6
SI_	30	0	6	96	96	2
TAP	30	0	7
TAP	31	0	0
STR	31	0	1
SI_	31	0	1	96	96	5
TAP	32	0	3
TAP	32	144	4
TAP	32	288	3
TAP	33	48	4
BRK	33	192	0
BRK	33	192	1
BRK	33	288	6
BRK	33	288	7
TAP	34	0	7
TAP	34	96	7
TAP	34	192	5
TAP	34	288	5
TAP	35	0	3
TAP	35	96	3
TAP	35	192	1
TAP	35	288	1
TAP	36	0	0
TAP	36	96	1
TAP	36	192	2
TAP	36	288	3
TAP	37	0	4
TAP	37	96	5
TAP	37	192	6
TAP	37	288	7
STR	38	0	0
SCL	38	0	0	96	96	5
TAP	38	0	1
TAP	39	0	6
STR	39	0	7
SCR	39	0	7	96	96	2
TAP	40	0	2
TAP	40	144	3
TAP	40	288	4
TAP	41	48	5
BRK	41	192	6
BRK	41	192	7
BRK	41	288	0
BRK	41	288	1
HLD	42	0	0	144
HLD	42	144	1	144
HLD	42	288	2	144
HLD	43	48	3	144
TAP	43	192	4
HLD	44	0	7	144
HLD	44	144	6	144
HLD	44	288	5	144
HLD	45	48	4	144
TAP	45	192	3
HLD	46	0	0	144
HLD	46	144	2	144
HLD	46	288	4	144
HLD	47	48	6	144
TAP	47	192	0
TAP	47	288	0
HLD	48	0	7	144
HLD	48	144	6	144
HLD	48	288	5	288
HLD	50	0	0	144
HLD	50	144	2	144
HLD	50	288	1	144
HLD	51	48	7	144
TAP	51	192	0
TAP	51	288	0
HLD	52	0	4	144
HLD	52	144	6	144
HLD	52	288	5	144
HLD	53	48	3	144
TAP	53	192	4
TAP	53	288	4
HLD	54	0	0	288
TAP	54	144	1
HLD	54	288	7	144
TAP	55	48	6
TAP	55	192	0
TAP	55	288	7
TAP	56	0	4
TAP	56	0	5
TAP	56	192	2
TAP	56	192	3
BRK	57	0	0
BRK	57	0	7
TAP	58	0	2
TAP	58	96	3
TAP	58	192	2
TAP	58	288	6
TAP	58	336	6
TAP	58	336	7
TAP	59	48	6
TAP	59	48	7
TAP	59	144	0
TAP	59	144	1
TAP	59	240	0
TAP	59	240	1
TAP	59	336	4
TAP	60	0	5
TAP	60	96	4
TAP	60	192	5
TAP	60	288	1
TAP	60	336	0
TAP	60	336	1
TAP	61	48	0
TAP	61	48	1
TAP	61	144	6
TAP	61	144	7
TAP	61	240	6
TAP	61	240	7
TAP	62	0	0
HLD	62	0	3	144
HLD	62	144	6	144
TAP	62	288	7
TAP	63	96	3
TAP	63	96	5
TAP	63	192	4
TAP	63	288	1
TAP	63	288	7
HLD	64	0	0	144
TAP	64	0	4
HLD	64	144	6	144
TAP	64	288	4
TAP	65	96	2
TAP	65	192	1
TAP	65	240	3
TAP	66	0	0
TAP	66	96	1
STR	66	96	7
SI_	66	96	7	96	96	3
TAP	66	192	0
TAP	66	336	2
TAP	66	336	3
TAP	67	48	2
TAP	67	48	3
TAP	67	144	4
TAP	67	144	5
TAP	67	240	4
TAP	67	240	5
TAP	67	336	6
TAP	68	0	7
STR	68	96	0
SI_	68	96	0	96	96	4
TAP	68	96	6
TAP	68	192	7
TAP	68	336	4
TAP	68	336	5
TAP	69	48	4
TAP	69	48	5
TAP	69	144	2
TAP	69	144	3
TAP	69	240	2
TAP	69	240	3
TAP	69	336	1
TAP	70	0	0
TAP	70	0	2
TAP	70	144	1
TAP	70	144	7
TAP	70	288	5
TAP	70	288	6
TAP	71	96	4
TAP	71	192	3
TAP	71	288	2
TAP	72	0	1
TAP	72	0	3
TAP	72	144	2
TAP	72	144	4
TAP	72	288	5
TAP	72	288	6
TAP	73	96	7
TAP	73	192	0
TAP	73	288	1
TAP	74	0	7
TAP	74	96	7
TAP	74	192	0
TAP	74	288	0
TAP	75	0	2
TAP	75	96	2
TAP	75	192	5
TAP	75	288	5
TAP	76	0	3
TAP	76	96	3
TAP	76	192	4
TAP	76	288	4
HLD	77	0	1	192
HLD	77	0	6	192
TAP	78	0	0
TAP	78	0	1
TAP	78	144	2
TAP	78	144	3
TAP	78	288	4
TAP	78	288	5
BRK	79	0	6
BRK	79	0	7
TAP	80	0	1
TAP	80	96	1
TAP	80	192	1
TAP	80	288	1
TAP	80	336	0
TAP	81	96	1
BRK	81	192	0
BRK	81	192	7
BRK	81	288	0
BRK	81	288	7
TAP	82	0	5
TAP	82	96	5
TAP	82	192	5
TAP	82	288	5
TAP	82	336	4
TAP	83	96	5
BRK	83	192	0
BRK	83	192	1
BRK	83	288	0
BRK	83	288	1
TAP	84	0	2
TAP	84	96	2
TAP	84	192	2
TAP	84	288	2
TAP	84	336	3
TAP	85	96	2
BRK	85	192	6
BRK	85	192	7
BRK	85	288	6
BRK	85	288	7
TAP	86	0	6
TAP	86	96	6
TAP	86	192	6
TAP	86	288	6
TAP	86	336	7
TAP	87	96	6
BRK	87	192	0
BRK	87	192	6
BRK	87	288	1
BRK	87	288	7
TAP	88	0	0
TAP	88	0	1
TAP	88	96	0
TAP	88	192	7
TAP	88	288	6
TAP	88	336	6
TAP	89	96	6
TAP	89	96	7
BRK	89	192	1
BRK	89	192	6
BRK	89	288	0
BRK	89	288	7
TAP	90	0	2
TAP	90	0	3
TAP	90	96	3
TAP	90	192	4
TAP	90	288	5
TAP	90	336	5
TAP	91	96	4
TAP	91	96	5
BRK	91	192	0
BRK	91	192	1
BRK	91	288	2
BRK	91	288	7
TAP	92	0	6
TAP	92	96	7
TAP	92	192	0
TAP	92	288	1
TAP	92	336	1
TAP	93	96	0
TAP	93	96	7
BRK	93	192	6
BRK	93	192	7
BRK	93	288	0
BRK	93	288	5
STR	94	0	0
SI_	94	0	0	96	144	4
STR	94	0	7
SI_	94	0	7	96	144	3
HLD	95	0	2	96
HLD	95	0	5	96
TAP	95	192	0
TAP	95	192	7
TAP	95	288	0
TAP	95	288	7
TAP	96	0	2
STR	96	96	0
SCL	96	96	0	96	96	5
TAP	96	288	1
TAP	96	336	1
TAP	97	48	2
TAP	97	144	3
TAP	97	240	4
TAP	97	240	5
TAP	97	336	4
TAP	98	0	5
STR	98	96	7
SCR	98	96	7	96	96	2
TAP	98	288	6
TAP	98	336	6
TAP	99	48	5
TAP	99	144	4
TAP	99	240	2
TAP	99	240	3
TAP	100	0	0
TAP	100	0	4
TAP	100	96	2
TAP	100	144	3
TAP	100	240	7
TAP	100	288	6
TAP	101	96	2
TAP	101	96	6
TAP	101	192	1
TAP	101	192	5
TAP	101	288	0
TAP	101	288	4
TAP	102	0	3
TAP	102	0	7
TAP	102	96	4
TAP	102	144	5
TAP	102	240	1
TAP	102	288	0
TAP	103	96	0
TAP	103	96	7
TAP	103	192	0
TAP	103	192	7
BRK	103	240	0
BRK	103	240	7
TAP	104	0	0
TAP	104	96	1
TAP	104	192	2
TAP	104	288	3
TAP	104	336	2
TAP	104	336	3
TAP	105	48	2
TAP	105	48	3
TAP	105	144	4
TAP	105	144	5
TAP	105	240	4
TAP	105	240	5
TAP	105	336	0
TAP	106	0	7
TAP	106	96	6
TAP	106	192	5
TAP	106	288	4
TAP	106	336	4
TAP	106	336	5
TAP	107	48	4
TAP	107	48	5
TAP	107	144	2
TAP	107	144	3
TAP	107	240	2
TAP	107	240	3
TAP	108	0	1
TAP	108	96	1
TAP	108	144	0
TAP	108	144	1
TAP	108	240	1
TAP	108	288	0
TAP	108	288	2
TAP	109	96	2
TAP	109	96	3
TAP	109	192	4
TAP	109	192	5
TAP	109	288	6
TAP	109	288	7
TAP	110	0	6
TAP	110	96	6
TAP	110	144	6
TAP	110	144	7
TAP	110	240	6
TAP	110	288	5
TAP	110	288	7
TAP	111	96	2
TAP	111	96	3
TAP	111	192	4
TAP	111	192	5
TAP	111	288	6
TAP	111	288	7
STR	112	0	0
SI_	112	0	0	96	96	3
STR	112	192	7
SI_	112	192	7	96	96	4
STR	113	0	0
SI_	113	0	0	96	96	5
STR	113	192	7
SI_	113	192	7	96	96	2
TAP	114	0	0
TAP	114	96	1
TAP	114	192	2
TAP	114	288	3
HLD	115	0	4	96
STR	115	96	5
SCR	115	96	5	96	96	0
STR	116	0	7
SI_	116	0	7	96	96	3
STR	116	192	0
SI_	116	192	0	96	96	4
STR	117	0	7
SCL	117	0	7	96	96	4
STR	117	192	0
SCR	117	192	0	96	96	3
TAP	118	0	7
TAP	118	96	6
TAP	118	192	5
TAP	118	288	4
HLD	119	0	3	96
STR	119	96	2
SCL	119	96	2	96	96	7
TAP	120	0	6
TAP	120	0	7
TAP	120	144	4
TAP	120	144	5
TAP	120	288	2
TAP	120	288	3
BRK	121	0	0
BRK	121	0	1
TAP	122	0	0
TAP	122	0	1
TAP	122	144	2
TAP	122	144	3
TAP	122	288	4
TAP	122	288	5
BRK	123	0	6
BRK	123	0	7
TAP	123	96	6
TAP	123	96	7
TAP	123	192	0
TAP	123	192	1
TAP	123	288	6
TAP	123	288	7
TAP	124	0	0
TAP	124	0	4
TAP	124	144	1
TAP	124	144	5
TAP	124	288	2
TAP	124	288	6
TAP	125	0	3
TAP	125	0	7
BRK	125	192	0
BRK	125	192	7

T_REC_TAP	422
T_REC_BRK	54
T_REC_XTP	0
T_REC_HLD	39
T_REC_XHO	0
T_REC_STR	21
T_REC_BST	0
T_REC_XST	0
T_REC_TTP	0
T_REC_THO	0
T_REC_SLD	21
T_REC_ALL	557
T_NUM_TAP	443
T_NUM_BRK	54
T_NUM_HLD	39
T_NUM_SLD	21
T_NUM_ALL	557
T_JUDGE_TAP	497
T_JUDGE_HLD	125
T_JUDGE_SLD	21
T_JUDGE_ALL	643
TTM_EACHPAIRS	133
TTM_SCR_TAP	221500
TTM_SCR_BRK	140400
TTM_SCR_HLD	39000
TTM_SCR_SLD	31500
TTM_SCR_ALL	432400
TTM_SCR_S	414200
TTM_SCR_SS	427000
TTM_RAT_ACV	10126

