VERSION	0.00.00	1.03.00
FES_MODE	0
BPM_DEF	225.000	225.000	225.000	225.000
MET_DEF	4	4
RESOLUTION	384
CLK_DEF	384
COMPATIBLE_CODE	MA2

BPM	0	0	225.000
MET	0	0	4	4

TAP	2	0	0
TAP	2	0	7
TAP	3	288	6
TAP	4	0	6
TAP	5	288	1
TAP	6	0	1
TAP	8	0	6
TAP	8	0	7
TAP	8	192	0
TAP	8	192	1
TAP	9	0	0
TAP	9	0	7
BRK	9	192	1
BRK	9	192	6
TAP	10	0	6
TAP	10	192	7
TAP	11	0	0
TAP	11	96	0
TAP	11	192	0
TAP	12	0	1
TAP	12	192	0
TAP	13	0	7
TAP	13	96	7
TAP	13	192	7
TAP	14	0	5
TAP	14	192	4
TAP	15	0	3
TAP	15	96	3
TAP	15	192	3
TAP	16	0	2
TAP	16	192	3
TAP	17	0	4
TAP	17	0	5
TAP	17	96	4
TAP	17	96	5
TAP	17	192	4
TAP	17	192	5
TAP	18	0	6
TAP	18	96	6
TAP	18	192	6
TAP	19	0	0
TAP	19	96	0
TAP	19	192	0
TAP	20	0	7
TAP	20	96	7
TAP	20	192	7
TAP	21	0	1
TAP	21	96	1
TAP	21	192	1
TAP	22	0	6
TAP	22	96	6
TAP	22	192	6
TAP	22	192	7
TAP	23	0	5
TAP	23	96	5
TAP	23	192	4
TAP	23	192	5
TAP	24	0	2
TAP	24	96	2
TAP	24	192	2
TAP	24	192	3
TAP	25	0	0
TAP	25	96	1
BRK	25	192	0
BRK	25	192	1
TAP	26	0	6
TAP	26	192	6
TAP	26	192	7
TAP	27	0	1
TAP	27	192	0
TAP	27	192	1
TAP	28	0	2
TAP	28	192	2
TAP	28	192	3
TAP	29	0	5
TAP	29	192	4
TAP	29	192	5
TAP	30	0	0
TAP	30	0	7
TAP	30	192	1
TAP	30	192	2
TAP	31	0	3
TAP	31	0	4
TAP	31	192	5
TAP	31	192	6
STR	32	0	0
SI_	32	0	0	96	480	4
STR	32	0	7
SI_	32	0	7	96	480	3
TAP	34	0	7
TAP	34	96	7
TAP	34	192	0
TAP	34	192	7
TAP	35	0	3
TAP	35	96	3
TAP	35	192	3
TAP	35	192	4
TAP	36	0	6
TAP	36	96	6
TAP	36	192	5
TAP	36	192	6
TAP	37	0	1
TAP	37	96	1
TAP	37	192	1
TAP	37	192	2
TAP	38	0	0
TAP	38	0	7
TAP	38	192	1
TAP	38	192	2
TAP	39	0	5
TAP	39	0	6
TAP	39	192	3
TAP	39	192	4
STR	40	0	0
SCR	40	0	0	96	480	3
STR	40	0	7
SCL	40	0	7	96	480	4
HLD	42	0	0	432
TAP	43	192	6
HLD	44	0	7	432
TAP	45	192	7
HLD	46	0	0	432
TAP	47	192	0
HLD	48	0	1	432
TAP	49	192	1
HLD	50	0	2	144
HLD	50	288	3	144
TAP	51	192	2
TAP	51	192	3
HLD	52	0	5	144
HLD	52	288	4	144
TAP	53	192	4
TAP	53	192	5
HLD	54	0	0	144
HLD	54	288	7	144
TAP	55	192	0
TAP	55	192	7
HLD	56	0	1	192
HLD	56	192	6	192
BRK	57	0	1
HLD	58	0	6	192
TAP	58	192	7
TAP	59	0	4
TAP	59	0	5
TAP	59	96	4
TAP	59	96	5
TAP	59	192	4
TAP	59	192	5
HLD	60	0	1	192
TAP	60	192	0
TAP	61	0	2
TAP	61	0	3
TAP	61	96	2
TAP	61	96	3
TAP	61	192	2
TAP	61	192	3
STR	62	0	0
SCL	62	0	0	96	480	5
STR	64	0	4
SCL	64	0	4	96	480	1
HLD	66	0	6	192
TAP	66	192	5
TAP	67	0	0
TAP	67	0	7
TAP	67	96	0
TAP	67	96	7
TAP	67	192	0
TAP	67	192	7
HLD	68	0	1	192
TAP	68	192	2
TAP	69	0	3
TAP	69	0	4
TAP	69	96	3
TAP	69	96	4
TAP	69	192	3
TAP	69	192	4
STR	70	0	7
SCR	70	0	7	96	480	2
STR	72	0	3
SCR	72	0	3	96	480	6
TAP	74	0	0
TAP	74	96	0
TAP	74	192	1
TAP	74	288	1
TAP	75	0	2
TAP	75	96	2
TAP	75	192	3
TAP	76	0	7
TAP	76	96	7
TAP	76	192	6
TAP	76	288	6
TAP	77	0	5
TAP	77	96	5
TAP	77	192	4
TAP	78	0	3
TAP	78	0	4
TAP	78	144	2
TAP	78	144	5
TAP	78	288	1
TAP	78	288	6
BRK	79	0	0
BRK	79	0	7
TAP	80	0	0
TAP	80	96	7
HLD	80	192	6	192
TAP	81	0	7
BRK	81	192	1
TAP	82	0	7
TAP	82	96	0
HLD	82	192	1	192
TAP	83	0	0
BRK	83	192	6
TAP	84	0	4
TAP	84	96	3
HLD	84	192	2	192
TAP	85	0	3
BRK	85	192	0
BRK	85	192	1
TAP	86	0	3
TAP	86	96	4
HLD	86	192	5	192
TAP	87	0	4
BRK	87	192	6
BRK	87	192	7
HLD	88	0	0	192
HLD	88	192	1	192
TAP	89	0	2
BRK	89	192	1
HLD	90	0	7	192
HLD	90	192	6	192
TAP	91	0	5
BRK	91	192	6
TAP	92	0	6
TAP	92	96	6
TAP	92	192	7
TAP	92	288	7
TAP	93	0	0
BRK	93	192	0
BRK	93	192	1
TAP	94	0	0
TAP	94	96	1
TAP	94	192	7
TAP	94	288	6
TAP	95	0	0
TAP	95	0	7
BRK	95	192	1
BRK	95	192	6
HLD	96	0	1	192
TAP	96	192	0
TAP	97	0	2
TAP	97	96	2
TAP	97	192	3
TAP	97	288	3
HLD	98	0	6	192
TAP	98	192	7
TAP	99	0	5
TAP	99	96	5
TAP	99	192	4
HLD	100	0	2	144
STR	100	288	1
SCR	100	288	1	96	192	4
HLD	102	0	5	144
STR	102	288	6
SCL	102	288	6	96	192	3
HLD	104	0	1	192
TAP	104	192	0
TAP	105	0	5
TAP	105	96	5
TAP	105	192	4
TAP	105	288	4
HLD	106	0	6	192
TAP	106	192	7
TAP	107	0	2
TAP	107	96	2
TAP	107	192	3
HLD	108	0	6	144
HLD	108	288	4	288
TAP	109	192	5
HLD	110	0	1	144
HLD	110	288	3	288
TAP	111	192	2
TAP	112	0	0
TAP	112	96	0
TAP	112	192	6
TAP	112	192	7
TAP	113	0	4
TAP	113	96	4
TAP	113	192	2
TAP	113	192	3
TAP	114	0	5
TAP	114	96	5
TAP	114	192	6
TAP	114	192	7
TAP	115	0	1
TAP	115	96	1
TAP	115	192	2
TAP	115	192	3
TAP	116	0	7
TAP	116	96	7
TAP	116	192	0
TAP	116	192	1
TAP	117	0	5
TAP	117	96	5
TAP	117	192	6
TAP	117	192	7
TAP	118	0	1
TAP	118	96	1
TAP	118	192	2
TAP	118	192	3
TAP	119	0	6
TAP	119	96	6
TAP	119	192	4
TAP	119	192	5
HLD	120	0	0	144
HLD	120	0	1	144
TAP	120	288	2
TAP	120	288	7
TAP	121	0	2
TAP	121	0	7
HLD	122	0	6	144
HLD	122	0	7	144
TAP	122	288	0
TAP	122	288	5
TAP	123	0	0
TAP	123	0	5
TAP	124	0	3
TAP	124	0	4
TAP	124	144	2
TAP	124	144	5
TAP	124	288	1
TAP	124	288	6
TAP	125	0	1
TAP	125	0	6
BRK	125	192	0
BRK	125	192	7

T_REC_TAP	256
T_REC_BRK	21
T_REC_XTP	0
T_REC_HLD	38
T_REC_XHO	0
T_REC_STR	10
T_REC_BST	0
T_REC_XST	0
T_REC_TTP	0
T_REC_THO	0
T_REC_SLD	10
T_REC_ALL	335
T_NUM_TAP	266
T_NUM_BRK	21
T_NUM_HLD	38
T_NUM_SLD	10
T_NUM_ALL	335
T_JUDGE_TAP	287
T_JUDGE_HLD	162
T_JUDGE_SLD	10
T_JUDGE_ALL	459
TTM_EACHPAIRS	73
TTM_SCR_TAP	133000
TTM_SCR_BRK	54600
TTM_SCR_HLD	38000
TTM_SCR_SLD	15000
TTM_SCR_ALL	240600
TTM_SCR_S	231350
TTM_SCR_SS	238500
TTM_RAT_ACV	10088

