VERSION	0.00.00	1.03.00
FES_MODE	0
BPM_DEF	225.000	225.000	225.000	225.000
MET_DEF	4	4
RESOLUTION	384
CLK_DEF	384
COMPATIBLE_CODE	MA2

BPM	0	0	225.000
MET	0	0	4	4

HLD	8	0	0	192
HLD	9	0	0	192
TAP	10	0	0
TAP	11	0	1
TAP	12	0	2
TAP	13	0	3
TAP	13	192	3
TAP	14	0	4
TAP	15	0	5
TAP	16	0	6
TAP	17	0	7
TAP	17	192	7
TAP	18	0	0
TAP	19	0	7
TAP	20	0	6
TAP	21	0	5
TAP	21	192	5
TAP	22	0	4
TAP	23	0	3
TAP	24	0	2
TAP	25	0	1
TAP	25	192	1
TAP	26	0	0
TAP	27	0	0
TAP	28	0	7
TAP	29	0	7
STR	30	0	6
SI_	30	0	6	96	288	1
STR	32	0	2
SI_	32	0	2	96	288	5
TAP	34	0	6
TAP	35	0	6
TAP	36	0	7
TAP	37	0	7
STR	38	0	0
SI_	38	0	0	96	288	3
STR	40	0	4
SI_	40	0	4	96	288	7
HLD	42	0	6	384
TAP	43	192	6
HLD	44	0	7	384
TAP	45	192	7
HLD	46	0	0	384
TAP	47	192	0
STR	48	0	1
SI_	48	0	1	96	288	5
TAP	50	0	4
TAP	51	0	4
TAP	52	0	5
TAP	53	0	5
HLD	54	0	6	192
HLD	55	0	7	192
TAP	56	0	0
TAP	56	192	7
BRK	57	0	0
BRK	57	0	7
TAP	58	0	1
TAP	58	192	1
TAP	59	0	1
TAP	60	0	0
TAP	60	192	0
TAP	61	0	0
STR	62	0	1
SI_	62	0	1	96	288	5
TAP	63	192	6
STR	64	0	6
SI_	64	0	6	96	288	2
TAP	65	192	1
TAP	66	0	0
TAP	66	192	0
TAP	67	0	0
TAP	68	0	7
TAP	68	192	7
TAP	69	0	7
STR	70	0	6
SI_	70	0	6	96	288	2
TAP	71	192	1
STR	72	0	1
SI_	72	0	1	96	288	5
TAP	73	192	6
HLD	74	0	6	192
TAP	75	0	5
TAP	75	192	4
HLD	76	0	3	192
TAP	77	0	2
TAP	77	192	1
TAP	78	0	0
TAP	78	0	7
TAP	78	192	0
TAP	78	192	7
BRK	79	0	0
BRK	79	0	7
HLD	80	0	1	384
TAP	81	192	0
TAP	81	192	7
HLD	82	0	6	384
TAP	83	192	0
TAP	83	192	7
HLD	84	0	2	384
TAP	85	192	0
TAP	85	192	7
HLD	86	0	5	384
TAP	87	192	0
TAP	87	192	7
HLD	88	0	2	192
TAP	89	0	1
TAP	89	192	0
TAP	89	192	7
HLD	90	0	5	192
TAP	91	0	6
TAP	91	192	0
TAP	91	192	7
TAP	92	0	1
TAP	92	192	6
TAP	93	0	1
TAP	93	192	0
TAP	93	192	7
TAP	94	0	6
TAP	94	192	1
HLD	95	0	0	192
HLD	95	0	7	192
TAP	96	0	1
TAP	96	96	1
TAP	97	0	2
TAP	97	96	2
TAP	98	0	3
TAP	98	96	3
TAP	99	0	4
TAP	99	96	4
STR	100	0	5
SI_	100	0	5	96	288	1
TAP	101	192	2
STR	102	0	2
SI_	102	0	2	96	288	6
TAP	103	192	5
TAP	104	0	6
TAP	104	96	6
TAP	105	0	5
TAP	105	96	5
TAP	106	0	4
TAP	106	96	4
TAP	107	0	3
TAP	107	96	3
STR	108	0	2
SI_	108	0	2	96	288	6
TAP	109	192	5
STR	110	0	5
SI_	110	0	5	96	288	1
TAP	111	192	2
HLD	112	0	1	192
TAP	113	0	0
TAP	113	192	0
HLD	114	0	6	192
TAP	115	0	7
TAP	115	192	7
HLD	116	0	0	192
HLD	116	0	1	192
TAP	117	0	0
TAP	117	0	7
TAP	117	192	0
TAP	117	192	7
HLD	118	0	6	192
HLD	118	0	7	192
TAP	119	0	0
TAP	119	0	7
TAP	119	192	0
TAP	119	192	7
TAP	120	0	1
TAP	120	192	1
TAP	121	0	0
TAP	121	0	7
TAP	122	0	6
TAP	122	192	6
TAP	123	0	0
TAP	123	0	7
TAP	124	0	0
TAP	124	0	7
TAP	124	192	0
TAP	124	192	7
TAP	125	0	0
TAP	125	0	7
BRK	125	192	1
BRK	125	192	6

T_REC_TAP	128
T_REC_BRK	6
T_REC_XTP	0
T_REC_HLD	23
T_REC_XHO	0
T_REC_STR	13
T_REC_BST	0
T_REC_XST	0
T_REC_TTP	0
T_REC_THO	0
T_REC_SLD	13
T_REC_ALL	183
T_NUM_TAP	141
T_NUM_BRK	6
T_NUM_HLD	23
T_NUM_SLD	13
T_NUM_ALL	183
T_JUDGE_TAP	147
T_JUDGE_HLD	120
T_JUDGE_SLD	13
T_JUDGE_ALL	280
TTM_EACHPAIRS	24
TTM_SCR_TAP	70500
TTM_SCR_BRK	15600
TTM_SCR_HLD	23000
TTM_SCR_SLD	19500
TTM_SCR_ALL	128600
TTM_SCR_S	124200
TTM_SCR_SS	128000
TTM_RAT_ACV	10046

