VERSION	0.00.00	1.03.00
FES_MODE	0
BPM_DEF	145.000	145.000	145.000	145.000
MET_DEF	4	4
RESOLUTION	384
CLK_DEF	384
COMPATIBLE_CODE	MA2

BPM	0	0	145.000
MET	0	0	4	4

TAP	2	0	0
TAP	2	48	2
TAP	2	72	3
TAP	2	120	5
TAP	2	144	4
TAP	2	192	6
TAP	2	240	1
TAP	2	288	7
TAP	2	312	0
TAP	2	336	7
TAP	2	360	0
TAP	3	0	7
TAP	3	48	5
TAP	3	72	4
TAP	3	120	2
TAP	3	144	3
TAP	3	192	1
TAP	3	240	6
TAP	3	288	0
TAP	3	312	7
TAP	3	336	0
TAP	3	360	7
TAP	4	0	0
TAP	4	48	6
TAP	4	72	7
TAP	4	120	1
TAP	4	144	0
TAP	4	192	2
TAP	4	240	5
TAP	4	288	4
TAP	4	312	3
TAP	4	336	5
TAP	4	360	2
TAP	5	0	7
TAP	5	48	1
TAP	5	72	0
TAP	5	120	6
TAP	5	144	7
TAP	5	192	0
TAP	5	216	7
TAP	5	240	0
TAP	5	264	7
TAP	5	288	0
TAP	5	312	6
TAP	5	336	1
BRK	5	360	7
TAP	6	0	2
TAP	6	48	5
TAP	6	72	4
TAP	6	120	2
TAP	6	144	3
TAP	6	192	2
TAP	6	240	5
TAP	6	288	3
TAP	6	312	4
TAP	6	336	3
TAP	6	360	4
TAP	7	0	1
TAP	7	48	6
TAP	7	72	7
TAP	7	120	1
TAP	7	144	0
TAP	7	192	5
TAP	7	240	2
TAP	7	288	4
TAP	7	312	3
TAP	7	336	4
TAP	7	360	3
TAP	8	0	7
TAP	8	48	1
TAP	8	72	0
TAP	8	120	2
TAP	8	144	3
TAP	8	192	7
TAP	8	240	6
TAP	8	288	5
TAP	8	312	4
TAP	8	336	5
TAP	9	0	4
TAP	9	48	3
TAP	9	96	2
TAP	9	144	1
STR	9	192	0
SI_	9	192	0	96	48	4
STR	9	192	7
SI_	9	192	7	96	48	3
TAP	10	0	2
TAP	10	48	1
TAP	10	96	0
TAP	10	144	7
TAP	10	168	0
TAP	10	216	4
TAP	10	240	3
TAP	10	288	4
TAP	10	288	5
TAP	10	336	2
TAP	10	336	3
TAP	11	0	1
TAP	11	48	2
TAP	11	96	3
TAP	11	144	4
TAP	11	168	3
TAP	11	216	7
TAP	11	240	0
TAP	11	288	6
TAP	11	288	7
TAP	11	336	0
TAP	11	336	1
TAP	12	0	5
TAP	12	48	6
TAP	12	96	7
TAP	12	144	1
TAP	12	168	0
TAP	12	216	4
TAP	12	240	5
TAP	12	288	2
TAP	12	288	3
TAP	12	336	6
TAP	12	336	7
TAP	13	0	0
TAP	13	0	6
TAP	13	48	1
TAP	13	48	7
TAP	13	96	4
TAP	13	96	5
TAP	13	144	2
TAP	13	168	3
TAP	13	216	3
TAP	13	240	2
TAP	13	288	3
TAP	13	288	7
BRK	13	336	0
BRK	13	336	4
TAP	14	48	0
TAP	14	72	7
TAP	14	96	1
TAP	14	144	7
TAP	14	168	0
TAP	14	192	6
TAP	14	240	3
TAP	14	264	4
TAP	14	288	2
TAP	14	336	4
TAP	14	360	3
HLD	15	0	5	96
HLD	15	96	4	96
HLD	15	192	3	96
HLD	15	288	2	192
HLD	16	0	5	96
STR	16	144	2
SCL	16	144	2	96	48	7
STR	16	144	7
SCL	16	144	7	96	48	4
TAP	16	192	2
TAP	16	192	7
TAP	16	336	1
TAP	16	336	5
TAP	17	0	2
TAP	17	0	6
STR	17	96	0
SCR	17	96	0	96	48	3
STR	17	96	4
SCR	17	96	4	96	48	7
TAP	18	0	0
TAP	18	48	0
TAP	18	72	4
TAP	18	120	7
TAP	18	144	3
TAP	18	192	5
TAP	18	240	6
TAP	18	288	2
TAP	18	312	1
TAP	18	336	2
TAP	18	360	3
TAP	19	0	1
TAP	19	48	7
TAP	19	72	3
TAP	19	120	0
TAP	19	144	4
TAP	19	192	3
TAP	19	192	7
TAP	19	240	2
TAP	19	240	6
TAP	19	288	1
TAP	19	288	5
TAP	19	336	0
TAP	19	336	4
TAP	20	0	7
TAP	20	48	6
TAP	20	72	2
TAP	20	120	1
TAP	20	144	5
TAP	20	192	2
TAP	20	240	1
TAP	20	288	6
TAP	20	312	5
TAP	20	336	6
TAP	20	360	7
TAP	21	0	5
TAP	21	48	1
TAP	21	72	5
TAP	21	120	6
TAP	21	144	2
TAP	21	192	0
TAP	21	192	4
TAP	21	240	1
TAP	21	240	5
TAP	21	288	2
TAP	21	288	6
TAP	21	336	3
TAP	21	336	7
TAP	22	0	1
TAP	22	48	2
STR	22	72	2
SCL	22	72	2	96	48	7
TAP	22	144	3
TAP	22	192	6
TAP	22	240	5
TAP	22	288	4
TAP	22	336	3
TAP	23	0	5
TAP	23	48	6
STR	23	72	6
SCL	23	72	6	96	48	3
TAP	23	144	7
TAP	23	192	2
TAP	23	240	1
TAP	23	288	0
TAP	23	336	7
TAP	24	0	0
TAP	24	24	7
TAP	24	48	0
TAP	24	72	7
TAP	24	96	1
TAP	24	120	6
TAP	24	144	1
TAP	24	168	6
TAP	24	192	0
TAP	24	216	5
TAP	24	240	0
TAP	24	264	5
TAP	24	288	2
TAP	24	312	7
TAP	24	336	2
TAP	24	360	7
TAP	25	0	0
TAP	25	0	7
TAP	25	48	5
TAP	25	48	6
TAP	25	96	3
TAP	25	96	4
TAP	25	144	1
TAP	25	144	2
STR	25	192	6
SI_	25	192	6	96	48	2
STR	25	192	7
SI_	25	192	7	96	48	3
TAP	26	0	2
TAP	26	0	3
TAP	26	48	1
TAP	26	48	4
TAP	26	96	0
TAP	26	96	5
TAP	26	144	6
TAP	26	168	7
TAP	26	216	3
TAP	26	240	2
TAP	26	288	3
TAP	26	288	5
TAP	26	336	1
TAP	26	336	7
TAP	27	0	2
TAP	27	48	5
TAP	27	96	3
TAP	27	144	0
TAP	27	168	7
TAP	27	216	7
TAP	27	240	0
TAP	27	288	4
TAP	27	288	6
TAP	27	336	0
TAP	27	336	2
STR	28	0	2
SCR	28	0	2	96	96	5
TAP	28	48	1
TAP	28	96	0
TAP	28	144	7
TAP	28	168	7
TAP	28	216	6
TAP	28	240	6
TAP	28	288	2
TAP	28	288	3
TAP	28	336	4
TAP	28	336	5
STR	29	0	6
SCR	29	0	6	96	96	1
TAP	29	48	4
TAP	29	96	3
TAP	29	144	2
TAP	29	168	2
TAP	29	216	1
TAP	29	240	1
TAP	29	288	6
TAP	29	288	7
BRK	29	336	0
BRK	29	336	1
TAP	30	48	1
TAP	30	72	7
TAP	30	96	0
TAP	30	144	5
TAP	30	168	3
TAP	30	192	4
TAP	30	240	1
TAP	30	264	3
TAP	30	288	2
TAP	30	336	6
TAP	30	360	0
STR	31	0	7
SI_	31	0	7	96	48	3
STR	31	96	1
SI_	31	96	1	96	48	5
STR	31	192	2
SI_	31	192	2	96	48	6
TAP	32	0	0
TAP	32	0	7
TAP	32	144	3
TAP	32	144	7
TAP	32	192	2
TAP	32	192	6
TAP	32	240	1
TAP	32	240	5
TAP	32	336	0
TAP	32	336	4
TAP	33	0	2
TAP	33	0	6
STR	33	96	1
SI_	33	96	1	96	48	5
STR	33	96	7
SI_	33	96	7	96	48	3
STR	34	0	1
SI_	34	0	1	96	48	5
STR	34	96	0
SI_	34	96	0	96	48	4
STR	34	192	7
SI_	34	192	7	96	48	3
STR	35	0	0
SCL	35	0	0	96	48	5
STR	35	96	0
SCR	35	96	0	96	48	3
STR	35	192	0
SCL	35	192	0	96	48	5
STR	36	0	6
SI_	36	0	6	96	48	2
STR	36	96	7
SI_	36	96	7	96	48	3
STR	36	192	0
SI_	36	192	0	96	48	4
HLD	37	0	0	96
HLD	37	0	7	96
STR	37	192	0
SI_	37	192	0	96	48	4
STR	37	192	7
SI_	37	192	7	96	48	3
TAP	37	240	2
TAP	37	240	5
HLD	38	0	1	96
TAP	38	96	2
HLD	38	144	3	144
HLD	38	288	7	96
HLD	39	0	0	96
TAP	39	96	1
HLD	39	144	6	144
BRK	39	288	7
STR	40	0	1
SI_	40	0	1	96	48	5
STR	40	48	5
SI_	40	48	5	96	24	1
STR	40	192	6
SI_	40	192	6	96	48	2
STR	40	240	2
SI_	40	240	2	96	24	6
TAP	41	0	0
TAP	41	0	7
STR	41	72	0
SI_	41	72	0	96	48	4
STR	41	72	7
SI_	41	72	7	96	48	3
TAP	41	336	7
TAP	41	360	3
TAP	42	0	7
TAP	42	72	0
TAP	42	72	4
TAP	42	144	1
TAP	42	144	5
TAP	42	192	2
TAP	42	192	6
TAP	42	264	3
TAP	42	264	7
TAP	42	336	5
TAP	42	336	6
BRK	43	48	5
BRK	43	48	7
BRK	43	96	1
BRK	43	96	2
BRK	43	144	0
BRK	43	144	2
BRK	43	192	4
BRK	43	192	5
BRK	43	240	2
BRK	43	240	3
BRK	43	288	0
BRK	43	288	7
TAP	43	336	1
TAP	43	360	2
TAP	44	0	1
TAP	44	48	6
TAP	44	72	5
TAP	44	96	6
TAP	44	144	3
TAP	44	168	4
TAP	44	192	3
TAP	44	240	5
TAP	44	240	6
TAP	44	288	0
TAP	44	288	7
TAP	44	336	1
TAP	44	336	2
TAP	45	0	4
TAP	45	48	5
STR	45	96	6
SI_	45	96	6	96	24	3
STR	45	96	7
SI_	45	96	7	96	24	3
TAP	45	336	1
TAP	45	360	0
TAP	46	0	2
TAP	46	72	6
TAP	46	72	7
TAP	46	144	0
TAP	46	144	3
TAP	46	192	2
TAP	46	192	5
TAP	46	264	6
TAP	46	264	7
TAP	46	336	1
TAP	46	336	2
BRK	47	48	0
BRK	47	48	2
BRK	47	96	5
BRK	47	96	6
BRK	47	144	5
BRK	47	144	7
BRK	47	192	2
BRK	47	192	3
BRK	47	240	4
BRK	47	240	5
BRK	47	288	0
BRK	47	288	7
TAP	47	336	1
TAP	47	360	0
TAP	48	0	2
TAP	48	48	6
TAP	48	72	7
TAP	48	96	5
TAP	48	144	3
TAP	48	168	4
TAP	48	192	2
TAP	48	240	4
TAP	48	240	7
TAP	48	288	1
TAP	48	288	6
TAP	48	336	2
TAP	48	336	5
HLD	49	0	0	96
HLD	49	0	3	96
TAP	49	192	0
TAP	49	192	7
TAP	50	0	0
TAP	50	0	7
TAP	50	72	1
TAP	50	72	6
STR	50	144	3
SI_	50	144	3	96	48	0
STR	50	144	4
SI_	50	144	4	96	48	7
TAP	50	192	2
TAP	50	192	5
HLD	50	336	7	96
STR	51	48	1
SI_	51	48	1	96	47	5
STR	51	96	5
SI_	51	96	5	96	48	1
STR	51	144	1
SCR	51	144	1	96	48	4
STR	51	192	5
SCR	51	192	5	96	48	0
TAP	51	336	2
TAP	51	360	3
TAP	52	0	4
TAP	52	48	6
TAP	52	72	5
TAP	52	96	4
TAP	52	144	1
TAP	52	168	2
TAP	52	192	3
TAP	52	240	4
TAP	52	240	5
TAP	52	288	6
TAP	52	288	7
TAP	52	336	0
TAP	52	336	1
TAP	53	0	2
TAP	53	48	7
STR	53	96	0
SI_	53	96	0	96	24	4
STR	53	96	1
SI_	53	96	1	96	24	4
TAP	53	336	1
TAP	53	360	0
TAP	54	0	2
TAP	54	72	6
TAP	54	72	7
STR	54	144	0
SI_	54	144	0	96	24	4
STR	54	144	1
SI_	54	144	1	96	24	5
TAP	54	192	2
TAP	54	192	7
HLD	54	336	1	96
STR	55	48	6
SI_	55	48	6	96	47	2
STR	55	96	2
SI_	55	96	2	96	48	6
STR	55	144	6
SCL	55	144	6	96	48	3
STR	55	192	2
SCL	55	192	2	96	48	7
TAP	55	336	5
TAP	55	360	4
TAP	56	0	3
TAP	56	48	7
TAP	56	72	0
TAP	56	96	1
TAP	56	144	6
TAP	56	168	5
TAP	56	192	4
TAP	56	240	6
TAP	56	240	7
TAP	56	288	4
TAP	56	288	5
TAP	56	336	2
TAP	56	336	3
HLD	57	0	0	96
HLD	57	0	1	96
BRK	57	192	6
BRK	57	192	7
TAP	57	336	1
TAP	57	360	2
TAP	58	0	3
TAP	58	48	0
TAP	58	72	7
TAP	58	96	6
TAP	58	144	4
TAP	58	168	3
TAP	58	192	2
TAP	58	240	5
TAP	58	288	6
TAP	58	336	7
HLD	59	0	0	96
HLD	59	0	1	96
STR	59	192	2
SI_	59	192	2	96	48	7
STR	59	192	3
SI_	59	192	3	96	48	6
TAP	60	0	4
TAP	60	48	5
TAP	60	72	4
TAP	60	144	1
TAP	60	168	0
TAP	60	192	1
TAP	60	240	6
TAP	60	240	7
TAP	61	0	2
TAP	61	24	3
TAP	61	48	2
TAP	61	72	4
TAP	61	96	3
TAP	61	120	4
TAP	61	144	3
TAP	61	168	5
TAP	61	192	4
TAP	61	216	5
TAP	61	240	4
TAP	61	264	6
TAP	61	288	1
TAP	61	312	7
TAP	61	336	0
TAP	61	360	6
HLD	62	0	1	144
TAP	62	144	7
TAP	62	168	0
HLD	62	192	6	96
TAP	63	0	3
TAP	63	24	4
TAP	63	48	2
TAP	63	72	5
TAP	63	96	2
TAP	63	120	4
TAP	63	144	3
HLD	63	168	5	120
BRK	63	288	0
TAP	64	0	0
TAP	64	24	1
TAP	64	48	7
TAP	64	72	6
TAP	64	96	1
TAP	64	120	2
TAP	64	144	6
TAP	64	168	5
TAP	64	192	2
TAP	64	216	3
TAP	64	240	5
TAP	64	264	4
TAP	64	288	0
TAP	64	312	1
TAP	64	336	7
TAP	64	360	6
TAP	65	0	1
TAP	65	24	0
TAP	65	48	1
TAP	65	72	0
TAP	65	96	2
TAP	65	120	7
TAP	65	144	2
TAP	65	168	7
TAP	65	192	3
TAP	65	216	6
TAP	65	240	3
TAP	65	264	6
TAP	65	288	4
TAP	65	312	5
TAP	65	336	4
TAP	65	360	5
TAP	66	0	0
TAP	66	24	4
TAP	66	48	1
TAP	66	72	5
TAP	66	96	2
TAP	66	120	6
TAP	66	144	3
TAP	66	168	7
TAP	66	192	2
TAP	66	216	6
TAP	66	240	1
TAP	66	264	5
TAP	66	288	0
TAP	66	312	4
TAP	66	336	7
TAP	66	360	3
TAP	67	0	0
TAP	67	0	4
TAP	67	72	1
TAP	67	72	5
TAP	67	144	2
TAP	67	144	6
TAP	67	216	3
TAP	67	240	7
STR	67	288	4
SI_	67	288	4	96	48	1
STR	67	288	5
SI_	67	288	5	96	48	0
TAP	67	336	3
TAP	67	336	6

T_REC_TAP	509
T_REC_BRK	33
T_REC_XTP	0
T_REC_HLD	23
T_REC_XHO	0
T_REC_STR	54
T_REC_BST	0
T_REC_XST	0
T_REC_TTP	0
T_REC_THO	0
T_REC_SLD	54
T_REC_ALL	673
T_NUM_TAP	563
T_NUM_BRK	33
T_NUM_HLD	23
T_NUM_SLD	54
T_NUM_ALL	673
T_JUDGE_TAP	596
T_JUDGE_HLD	52
T_JUDGE_SLD	54
T_JUDGE_ALL	702
TTM_EACHPAIRS	108
TTM_SCR_TAP	281500
TTM_SCR_BRK	85800
TTM_SCR_HLD	23000
TTM_SCR_SLD	81000
TTM_SCR_ALL	471300
TTM_SCR_S	454000
TTM_SCR_SS	468000
TTM_RAT_ACV	10070

