VERSION	0.00.00	1.03.00
FES_MODE	0
BPM_DEF	145.000	145.000	145.000	145.000
MET_DEF	4	4
RESOLUTION	384
CLK_DEF	384
COMPATIBLE_CODE	MA2

BPM	0	0	145.000
MET	0	0	4	4

TAP	2	0	7
TAP	2	48	7
TAP	2	96	1
TAP	2	144	1
TAP	2	192	5
TAP	2	240	5
TAP	2	288	2
TAP	2	288	3
TAP	3	0	4
TAP	3	48	4
TAP	3	96	1
TAP	3	144	1
STR	3	192	3
SCR	3	192	3	96	48	6
TAP	4	0	0
TAP	4	48	0
TAP	4	96	6
TAP	4	144	6
TAP	4	192	2
TAP	4	240	2
TAP	4	288	4
TAP	4	288	5
TAP	5	0	3
TAP	5	48	3
TAP	5	96	6
TAP	5	144	6
STR	5	192	4
SCL	5	192	4	96	48	1
TAP	6	0	0
TAP	6	48	1
TAP	6	96	7
TAP	6	144	6
TAP	6	192	2
TAP	6	240	3
TAP	6	288	4
TAP	6	288	5
TAP	7	0	3
TAP	7	48	2
TAP	7	96	4
TAP	7	144	5
STR	7	192	7
SCR	7	192	7	96	48	2
TAP	8	0	6
TAP	8	48	7
TAP	8	96	1
TAP	8	144	0
TAP	8	192	4
TAP	8	240	5
TAP	8	288	2
TAP	8	288	3
TAP	9	0	4
TAP	9	48	5
TAP	9	96	3
TAP	9	144	2
STR	9	192	0
SCL	9	192	0	96	48	5
HLD	10	0	7	96
HLD	10	96	6	72
HLD	10	168	5	72
TAP	10	240	4
TAP	10	288	4
TAP	10	288	5
HLD	11	0	0	96
HLD	11	96	1	72
HLD	11	168	2	72
TAP	11	240	3
TAP	11	288	2
TAP	11	288	3
HLD	12	0	4	96
HLD	12	96	5	72
HLD	12	168	6	72
TAP	12	240	7
TAP	12	288	6
TAP	12	288	7
HLD	13	0	3	96
HLD	13	96	2	72
HLD	13	168	1	72
TAP	13	240	0
TAP	13	288	0
TAP	13	288	1
HLD	14	0	7	96
HLD	14	96	1	72
HLD	14	168	3	72
TAP	14	240	5
TAP	14	288	4
TAP	14	288	5
HLD	15	0	0	96
HLD	15	96	6	72
HLD	15	168	4	72
TAP	15	240	2
TAP	15	288	2
TAP	15	288	3
HLD	16	0	3	96
HLD	16	96	1	72
HLD	16	168	7	72
TAP	16	240	5
TAP	16	288	4
TAP	16	288	5
HLD	17	0	4	96
HLD	17	96	6	72
HLD	17	168	0	72
TAP	17	240	2
TAP	17	288	2
TAP	17	288	3
TAP	18	0	1
TAP	18	48	4
TAP	18	96	2
TAP	18	144	3
TAP	18	192	7
TAP	18	240	5
TAP	18	288	0
TAP	18	336	6
TAP	19	0	2
TAP	19	48	4
TAP	19	96	3
TAP	19	144	5
STR	19	192	7
SCR	19	192	7	96	48	2
TAP	19	240	7
TAP	20	0	7
TAP	20	48	1
TAP	20	96	6
TAP	20	144	0
TAP	20	192	5
TAP	20	240	7
TAP	20	288	4
TAP	20	336	3
TAP	21	0	5
TAP	21	48	3
TAP	21	96	4
TAP	21	144	2
STR	21	192	0
SCL	21	192	0	96	48	5
TAP	21	240	0
TAP	22	0	4
TAP	22	48	2
TAP	22	96	5
TAP	22	144	3
TAP	22	192	6
TAP	22	240	4
TAP	22	288	7
TAP	22	336	0
TAP	23	0	7
TAP	23	48	1
TAP	23	96	0
TAP	23	144	2
STR	23	192	4
SCL	23	192	4	96	48	1
TAP	23	240	4
TAP	24	0	3
TAP	24	48	5
TAP	24	96	2
TAP	24	144	4
TAP	24	192	1
TAP	24	240	3
TAP	24	288	0
TAP	24	336	7
TAP	25	0	4
TAP	25	0	5
TAP	25	48	4
TAP	25	48	5
TAP	25	96	2
TAP	25	96	3
TAP	25	144	2
TAP	25	144	3
TAP	25	192	0
TAP	25	192	7
BRK	25	288	1
BRK	25	288	6
TAP	26	0	6
TAP	26	48	7
HLD	26	96	0	72
TAP	26	168	1
TAP	26	240	2
TAP	26	240	3
TAP	26	288	4
TAP	26	288	5
TAP	27	0	2
TAP	27	48	3
HLD	27	96	4	72
TAP	27	168	5
TAP	27	240	6
TAP	27	240	7
TAP	27	288	0
TAP	27	288	1
TAP	28	0	7
TAP	28	48	3
TAP	28	96	5
TAP	28	168	1
TAP	28	240	4
TAP	28	240	5
TAP	28	288	2
TAP	28	288	3
TAP	29	0	0
TAP	29	48	4
TAP	29	96	2
TAP	29	168	6
TAP	29	240	0
TAP	29	288	7
BRK	29	336	0
STR	30	0	7
SI_	30	0	7	96	96	3
STR	30	192	5
SI_	30	192	5	96	96	1
HLD	31	0	6	96
HLD	31	96	5	96
HLD	31	192	4	96
HLD	31	288	1	96
BRK	32	0	0
TAP	32	144	6
TAP	32	144	7
TAP	32	192	0
TAP	32	192	5
TAP	32	240	6
TAP	32	240	7
TAP	32	336	1
TAP	32	336	7
TAP	33	0	0
TAP	33	0	4
TAP	33	96	1
TAP	33	96	5
BRK	33	192	2
BRK	33	192	6
HLD	34	0	1	144
TAP	34	144	0
TAP	34	192	2
STR	34	192	3
SI_	34	192	3	96	48	7
HLD	35	0	6	144
TAP	35	144	7
STR	35	192	4
SI_	35	192	4	96	48	0
TAP	35	192	5
HLD	36	0	1	144
TAP	36	144	0
TAP	36	192	2
STR	36	192	3
SI_	36	192	3	96	48	7
HLD	37	0	6	144
TAP	37	144	1
STR	37	192	0
SI_	37	192	0	96	48	3
STR	37	192	7
SI_	37	192	7	96	48	4
HLD	38	0	7	144
TAP	38	144	6
STR	38	192	4
SI_	38	192	4	96	48	7
TAP	38	192	5
HLD	39	0	0	144
TAP	39	144	1
TAP	39	192	2
STR	39	192	3
SI_	39	192	3	96	48	0
HLD	40	0	7	96
HLD	40	96	5	96
HLD	40	192	3	96
HLD	40	288	1	96
HLD	41	0	7	144
HLD	41	144	3	144
BRK	41	288	0
STR	42	0	6
SI_	42	0	6	96	48	1
TAP	42	144	3
STR	42	192	4
SI_	42	192	4	96	48	1
TAP	42	336	7
TAP	43	48	6
TAP	43	48	7
TAP	43	96	6
TAP	43	96	7
TAP	43	144	4
TAP	43	144	5
TAP	43	192	2
TAP	43	192	3
TAP	43	240	0
TAP	43	240	1
BRK	43	288	6
BRK	43	288	7
TAP	44	0	6
TAP	44	48	5
TAP	44	96	4
TAP	44	144	3
HLD	44	192	2	96
HLD	44	288	1	96
TAP	45	0	0
STR	45	96	6
SI_	45	96	6	96	48	3
STR	45	96	7
SI_	45	96	7	96	48	3
STR	46	0	5
SI_	46	0	5	96	48	2
TAP	46	144	0
STR	46	192	7
SI_	46	192	7	96	48	3
TAP	46	336	4
TAP	47	48	0
TAP	47	48	1
TAP	47	96	0
TAP	47	96	1
TAP	47	144	2
TAP	47	144	3
TAP	47	192	4
TAP	47	192	5
TAP	47	240	6
TAP	47	240	7
BRK	47	288	0
BRK	47	288	1
TAP	48	0	6
TAP	48	0	7
TAP	48	96	6
TAP	48	96	7
STR	48	192	5
SI_	48	192	5	96	48	1
STR	48	288	2
SI_	48	288	2	96	48	6
STR	49	96	0
SCR	49	96	0	96	96	3
STR	49	96	7
SCL	49	96	7	96	96	4
STR	50	0	1
SI_	50	0	1	96	48	6
TAP	50	144	4
STR	50	192	3
SI_	50	192	3	96	48	0
TAP	50	336	7
TAP	51	48	2
TAP	51	48	3
TAP	51	96	4
TAP	51	96	5
TAP	51	144	6
TAP	51	144	7
TAP	51	192	4
TAP	51	192	5
TAP	51	240	2
TAP	51	240	3
BRK	51	288	0
BRK	51	288	1
TAP	51	336	7
TAP	52	0	0
TAP	52	48	1
TAP	52	96	2
TAP	52	144	3
HLD	52	192	4	96
HLD	52	288	5	96
TAP	53	0	6
STR	53	96	0
SI_	53	96	0	96	48	4
STR	53	96	1
SI_	53	96	1	96	48	4
TAP	53	336	3
STR	54	0	2
SI_	54	0	2	96	48	5
TAP	54	144	7
STR	54	192	0
SI_	54	192	0	96	48	3
TAP	54	336	4
TAP	55	48	0
TAP	55	48	1
TAP	55	96	6
TAP	55	96	7
TAP	55	144	4
TAP	55	144	5
TAP	55	192	2
TAP	55	192	3
TAP	55	240	4
TAP	55	240	5
BRK	55	288	6
BRK	55	288	7
TAP	55	336	1
TAP	56	0	0
TAP	56	0	1
TAP	56	48	6
TAP	56	96	6
TAP	56	96	7
TAP	56	144	2
STR	56	192	3
SI_	56	192	3	96	48	7
STR	56	288	4
SI_	56	288	4	96	48	0
STR	57	96	0
SCR	57	96	0	96	96	3
STR	57	96	7
SCL	57	96	7	96	96	4
STR	57	336	6
SI_	57	336	6	96	48	3
TAP	58	0	6
STR	58	48	0
SI_	58	48	0	96	48	3
TAP	58	96	0
STR	58	144	7
SI_	58	144	7	96	48	3
TAP	58	192	7
STR	59	0	0
SCR	59	0	0	96	48	3
STR	59	0	4
SCR	59	0	4	96	48	7
STR	59	192	0
SCL	59	192	0	96	48	5
STR	59	192	4
SCL	59	192	4	96	48	1
TAP	60	0	2
TAP	60	48	2
TAP	60	96	7
TAP	60	144	7
TAP	60	192	1
TAP	60	240	1
TAP	60	288	4
TAP	60	336	4
TAP	61	0	0
TAP	61	48	0
TAP	61	96	5
TAP	61	144	5
TAP	61	192	3
TAP	61	240	3
TAP	61	288	6
TAP	61	336	6
HLD	62	0	1	144
TAP	62	144	7
TAP	62	192	7
TAP	63	0	0
TAP	63	48	2
TAP	63	96	4
TAP	63	144	6
HLD	63	192	0	96
BRK	63	288	7
TAP	64	0	0
TAP	64	48	1
TAP	64	96	7
TAP	64	144	6
TAP	64	192	1
TAP	64	240	2
TAP	64	288	6
TAP	64	336	5
TAP	65	0	2
TAP	65	48	3
TAP	65	96	5
TAP	65	144	4
TAP	65	192	3
TAP	65	240	4
TAP	65	288	1
TAP	65	336	6
STR	66	0	0
SI_	66	0	0	96	48	4
STR	66	96	6
SI_	66	96	6	96	48	2
STR	66	192	7
SCR	66	192	7	96	48	2
BRK	66	288	5
TAP	67	0	0
TAP	67	0	2
TAP	67	72	1
TAP	67	72	6
TAP	67	144	5
TAP	67	144	7
TAP	67	216	4
TAP	67	216	6
STR	67	288	1
SI_	67	288	1	96	96	5
BRK	67	288	3

T_REC_TAP	300
T_REC_BRK	18
T_REC_XTP	0
T_REC_HLD	48
T_REC_XHO	0
T_REC_STR	47
T_REC_BST	0
T_REC_XST	0
T_REC_TTP	0
T_REC_THO	0
T_REC_SLD	47
T_REC_ALL	460
T_NUM_TAP	347
T_NUM_BRK	18
T_NUM_HLD	48
T_NUM_SLD	47
T_NUM_ALL	460
T_JUDGE_TAP	365
T_JUDGE_HLD	105
T_JUDGE_SLD	47
T_JUDGE_ALL	517
TTM_EACHPAIRS	76
TTM_SCR_TAP	173500
TTM_SCR_BRK	46800
TTM_SCR_HLD	48000
TTM_SCR_SLD	70500
TTM_SCR_ALL	338800
TTM_SCR_S	326900
TTM_SCR_SS	337000
TTM_RAT_ACV	10053

