VERSION	0.00.00	1.03.00
FES_MODE	0
BPM_DEF	145.000	145.000	145.000	145.000
MET_DEF	4	4
RESOLUTION	384
CLK_DEF	384
COMPATIBLE_CODE	MA2

BPM	0	0	145.000
MET	0	0	4	4

TAP	2	0	7
TAP	2	96	0
TAP	2	192	1
TAP	3	0	0
TAP	3	96	1
TAP	3	192	2
TAP	4	0	1
TAP	4	96	2
TAP	4	192	3
TAP	5	0	2
TAP	5	96	3
TAP	5	192	4
TAP	5	288	5
TAP	6	0	3
TAP	6	96	4
TAP	6	192	5
TAP	7	0	4
TAP	7	96	5
TAP	7	192	6
TAP	8	0	5
TAP	8	96	6
TAP	8	192	7
TAP	8	288	7
TAP	9	0	0
TAP	9	96	7
TAP	9	192	0
TAP	9	192	7
TAP	10	0	0
TAP	10	96	1
TAP	10	192	0
TAP	10	192	1
TAP	11	0	2
TAP	11	96	3
TAP	11	192	2
TAP	11	192	3
HLD	12	0	4	192
HLD	12	192	5	192
HLD	13	0	6	192
TAP	13	192	7
TAP	13	288	7
TAP	14	96	0
TAP	14	192	0
TAP	14	288	0
TAP	15	96	1
TAP	15	192	1
TAP	15	288	1
TAP	16	0	1
TAP	16	0	2
TAP	16	192	5
TAP	16	192	6
TAP	17	0	4
TAP	17	0	5
TAP	17	96	3
TAP	17	96	4
TAP	17	192	2
TAP	17	192	3
STR	17	288	1
SI_	17	288	1	96	192	6
TAP	20	0	7
TAP	20	96	6
TAP	20	192	5
TAP	21	0	6
TAP	21	96	5
TAP	21	192	4
TAP	22	0	5
TAP	22	96	4
TAP	22	192	3
TAP	23	0	4
TAP	23	96	3
TAP	23	192	2
TAP	23	192	4
TAP	24	0	3
TAP	24	96	2
TAP	24	192	1
TAP	24	288	0
TAP	25	0	7
TAP	25	96	7
BRK	25	192	7
TAP	26	0	7
TAP	26	96	7
TAP	26	192	6
TAP	26	288	6
TAP	27	0	5
TAP	27	96	5
TAP	27	192	4
HLD	28	0	3	192
HLD	28	192	2	192
HLD	29	0	1	192
TAP	29	192	0
TAP	29	288	0
TAP	30	96	7
TAP	30	192	7
TAP	30	288	7
TAP	31	96	6
TAP	31	192	6
TAP	31	288	6
TAP	32	0	6
TAP	32	0	7
TAP	32	192	5
TAP	32	192	6
STR	33	0	3
SI_	33	0	3	96	120	0
STR	33	0	4
SI_	33	0	4	96	120	7
TAP	34	0	7
TAP	34	144	6
TAP	34	192	6
TAP	35	0	0
TAP	35	144	1
TAP	35	192	1
TAP	36	0	5
TAP	36	144	4
TAP	36	192	4
TAP	37	0	2
TAP	37	144	3
TAP	37	192	3
TAP	37	288	4
STR	38	0	5
SI_	38	0	5	96	144	2
STR	39	0	1
SI_	39	0	1	96	144	6
TAP	40	0	0
TAP	40	96	0
TAP	40	192	7
TAP	40	288	7
HLD	41	0	3	288
HLD	41	0	4	288
TAP	42	0	0
TAP	42	0	1
TAP	42	192	2
TAP	42	192	3
TAP	43	0	3
TAP	43	0	4
TAP	43	96	4
TAP	43	96	5
BRK	43	192	5
BRK	43	192	6
TAP	44	0	2
TAP	44	0	3
TAP	44	192	1
TAP	44	192	2
TAP	45	0	0
TAP	45	0	1
STR	45	96	0
SI_	45	96	0	96	96	5
STR	45	96	1
SI_	45	96	1	96	96	4
TAP	46	0	3
TAP	46	96	3
TAP	46	192	2
TAP	46	288	2
TAP	47	0	1
TAP	47	96	1
TAP	47	192	0
TAP	47	288	0
TAP	48	0	0
TAP	48	0	1
TAP	48	96	2
TAP	48	96	3
TAP	48	192	6
TAP	48	192	7
HLD	49	0	0	192
HLD	49	192	4	96
BRK	50	0	1
BRK	50	0	6
TAP	51	0	6
TAP	51	0	7
TAP	51	96	0
TAP	51	96	7
TAP	51	192	0
TAP	51	192	1
TAP	52	0	2
TAP	52	0	3
TAP	52	192	4
TAP	52	192	5
TAP	53	0	6
TAP	53	0	7
STR	53	96	6
SI_	53	96	6	96	96	3
STR	53	96	7
SI_	53	96	7	96	96	2
TAP	54	0	7
TAP	54	96	6
TAP	54	192	5
TAP	54	288	4
TAP	55	0	0
TAP	55	96	1
TAP	55	192	2
TAP	55	288	3
TAP	56	0	5
TAP	56	96	5
TAP	56	192	2
TAP	56	288	2
HLD	57	0	6	192
HLD	57	192	1	192
TAP	58	0	7
TAP	58	96	7
TAP	58	192	3
TAP	58	288	4
HLD	59	0	0	192
TAP	59	192	7
BRK	59	288	6
TAP	60	0	7
TAP	60	96	6
TAP	60	192	7
TAP	60	288	6
TAP	61	0	5
TAP	61	96	4
TAP	61	192	5
TAP	61	288	4
TAP	62	0	3
TAP	62	96	2
TAP	62	192	3
TAP	62	288	2
TAP	63	0	1
TAP	63	96	1
HLD	63	192	0	96
TAP	64	0	0
TAP	64	96	1
TAP	64	192	0
TAP	64	288	1
TAP	65	0	2
TAP	65	96	3
TAP	65	192	2
TAP	65	288	3
TAP	66	0	4
TAP	66	96	5
TAP	66	192	4
TAP	66	288	5
TAP	67	0	5
TAP	67	0	6
STR	67	288	5
SI_	67	288	5	96	192	2
STR	67	288	6
SI_	67	288	6	96	192	1

T_REC_TAP	193
T_REC_BRK	6
T_REC_XTP	0
T_REC_HLD	14
T_REC_XHO	0
T_REC_STR	11
T_REC_BST	0
T_REC_XST	0
T_REC_TTP	0
T_REC_THO	0
T_REC_SLD	11
T_REC_ALL	235
T_NUM_TAP	204
T_NUM_BRK	6
T_NUM_HLD	14
T_NUM_SLD	11
T_NUM_ALL	235
T_JUDGE_TAP	210
T_JUDGE_HLD	56
T_JUDGE_SLD	11
T_JUDGE_ALL	277
TTM_EACHPAIRS	35
TTM_SCR_TAP	102000
TTM_SCR_BRK	15600
TTM_SCR_HLD	14000
TTM_SCR_SLD	16500
TTM_SCR_ALL	148100
TTM_SCR_S	143100
TTM_SCR_SS	147500
TTM_RAT_ACV	10040

