VERSION	0.00.00	1.03.00
FES_MODE	0
BPM_DEF	145.000	145.000	145.000	145.000
MET_DEF	4	4
RESOLUTION	384
CLK_DEF	384
COMPATIBLE_CODE	MA2

BPM	0	0	145.000
MET	0	0	4	4

HLD	2	0	5	192
HLD	3	0	4	192
HLD	4	0	3	192
TAP	5	0	2
TAP	5	192	1
TAP	5	192	2
HLD	6	0	1	192
HLD	7	0	0	192
HLD	8	0	7	192
TAP	9	0	6
TAP	9	96	6
TAP	9	192	6
STR	10	0	0
SI_	10	0	0	96	192	3
STR	11	0	4
SI_	11	0	4	96	192	7
TAP	12	0	0
TAP	12	192	0
TAP	13	0	1
TAP	13	192	1
STR	14	0	2
SI_	14	0	2	96	192	5
STR	15	0	6
SI_	15	0	6	96	192	2
TAP	16	0	0
TAP	16	192	1
TAP	17	0	2
TAP	17	192	3
STR	18	0	3
SI_	18	0	3	96	192	0
STR	18	0	4
SI_	18	0	4	96	195	7
TAP	20	0	0
TAP	20	192	7
TAP	21	0	6
TAP	22	0	6
TAP	22	192	5
TAP	23	0	4
TAP	24	0	4
TAP	24	192	3
TAP	25	0	2
TAP	25	96	2
BRK	25	192	2
TAP	26	0	1
HLD	26	96	1	192
TAP	27	0	2
HLD	27	96	2	192
TAP	28	0	3
TAP	28	192	4
TAP	29	0	5
TAP	29	192	4
TAP	29	192	5
HLD	30	0	6	192
HLD	31	0	7	192
TAP	32	0	6
TAP	32	0	7
TAP	32	192	0
TAP	32	192	7
HLD	33	0	0	192
HLD	33	0	1	192
STR	34	0	7
SI_	34	0	7	96	192	4
TAP	35	192	3
TAP	35	192	4
STR	36	0	3
SI_	36	0	3	96	192	7
TAP	37	192	0
TAP	37	288	0
TAP	38	0	0
TAP	38	0	1
TAP	39	0	2
TAP	39	0	3
TAP	40	0	4
TAP	40	192	5
BRK	41	0	6
BRK	41	0	7
TAP	42	0	0
TAP	42	192	7
TAP	43	0	6
TAP	43	96	6
TAP	43	192	5
TAP	43	192	6
TAP	44	0	5
TAP	44	192	4
TAP	45	0	3
TAP	45	96	2
BRK	45	192	2
BRK	45	192	3
TAP	46	0	1
TAP	46	192	0
STR	47	0	0
SI_	47	0	0	96	192	3
STR	47	0	7
SI_	47	0	7	96	192	4
TAP	48	0	5
TAP	48	96	5
TAP	48	192	6
TAP	48	288	6
HLD	49	0	7	192
BRK	50	0	0
BRK	50	0	7
BRK	50	192	0
BRK	50	192	7
TAP	51	0	6
TAP	51	96	6
TAP	51	192	6
TAP	52	0	6
TAP	52	0	7
TAP	52	192	0
TAP	52	192	1
TAP	53	0	2
TAP	53	96	2
TAP	53	192	2
TAP	53	192	3
TAP	54	0	4
TAP	54	192	3
TAP	55	0	2
TAP	55	96	1
TAP	55	192	2
TAP	56	0	0
TAP	56	192	1
TAP	57	0	7
TAP	57	192	6
TAP	58	0	7
TAP	58	96	7
TAP	58	192	0
TAP	58	288	0
TAP	59	0	0
TAP	59	0	7
BRK	59	192	0
BRK	59	192	1
TAP	60	0	1
TAP	60	96	1
TAP	60	192	2
TAP	61	0	3
TAP	61	96	3
TAP	61	192	3
TAP	62	0	4
TAP	62	96	4
TAP	62	192	5
HLD	63	0	3	192
HLD	63	0	4	192
TAP	64	0	6
TAP	64	96	6
TAP	64	192	5
TAP	65	0	4
TAP	65	96	3
TAP	65	192	2
TAP	66	0	1
TAP	66	192	0
TAP	67	0	0
TAP	67	96	0
BRK	67	192	0
STR	68	0	0
SI_	68	0	0	96	288	3
STR	68	0	7
SI_	68	0	7	96	288	4

T_REC_TAP	106
T_REC_BRK	12
T_REC_XTP	0
T_REC_HLD	15
T_REC_XHO	0
T_REC_STR	12
T_REC_BST	0
T_REC_XST	0
T_REC_TTP	0
T_REC_THO	0
T_REC_SLD	12
T_REC_ALL	157
T_NUM_TAP	118
T_NUM_BRK	12
T_NUM_HLD	15
T_NUM_SLD	12
T_NUM_ALL	157
T_JUDGE_TAP	130
T_JUDGE_HLD	60
T_JUDGE_SLD	12
T_JUDGE_ALL	202
TTM_EACHPAIRS	22
TTM_SCR_TAP	59000
TTM_SCR_BRK	31200
TTM_SCR_HLD	15000
TTM_SCR_SLD	18000
TTM_SCR_ALL	123200
TTM_SCR_S	118350
TTM_SCR_SS	122000
TTM_RAT_ACV	10098

