VERSION	0.00.00	1.03.00
FES_MODE	0
BPM_DEF	155.000	155.000	155.000	155.000
MET_DEF	4	4
RESOLUTION	384
CLK_DEF	384
COMPATIBLE_CODE	MA2

BPM	0	0	155.000
MET	0	0	4	4

TAP	1	0	1
TAP	1	48	1
TAP	1	96	1
TAP	1	120	2
TAP	1	168	2
TAP	1	192	3
TAP	1	240	3
TAP	1	264	4
TAP	1	336	4
TAP	1	336	5
TAP	2	0	6
TAP	2	48	6
TAP	2	96	6
TAP	2	120	5
TAP	2	168	5
TAP	2	192	4
TAP	2	240	4
TAP	2	264	3
TAP	2	336	2
TAP	2	336	3
TAP	3	0	0
TAP	3	48	0
TAP	3	96	0
TAP	3	120	1
TAP	3	168	1
TAP	3	192	2
TAP	3	240	2
TAP	3	264	3
TAP	3	336	4
TAP	3	336	5
TAP	4	0	7
TAP	4	48	7
TAP	4	96	7
TAP	4	120	6
TAP	4	168	6
TAP	4	192	5
TAP	4	240	5
TAP	4	264	4
TAP	4	336	2
TAP	4	336	3
TAP	5	0	1
TAP	5	48	1
TAP	5	96	1
TAP	5	120	2
TAP	5	168	2
TAP	5	192	3
TAP	5	240	3
TAP	5	264	4
TAP	5	312	4
TAP	5	336	5
TAP	6	0	6
TAP	6	48	6
TAP	6	96	6
TAP	6	120	5
TAP	6	168	5
TAP	6	192	4
TAP	6	240	4
TAP	6	264	3
TAP	6	312	3
TAP	6	336	2
TAP	7	0	0
TAP	7	48	0
TAP	7	96	0
TAP	7	120	1
TAP	7	168	1
TAP	7	192	2
TAP	7	240	2
TAP	7	264	3
TAP	7	312	3
TAP	7	336	4
TAP	8	0	7
TAP	8	48	7
TAP	8	96	7
TAP	8	120	6
TAP	8	168	6
TAP	8	192	5
TAP	8	240	5
TAP	8	264	4
TAP	8	312	4
TAP	8	336	3
TAP	9	0	0
TAP	9	48	6
TAP	9	48	7
TAP	9	96	5
TAP	9	120	4
TAP	9	168	2
TAP	9	192	3
TAP	9	240	6
TAP	9	264	7
TAP	9	312	1
TAP	9	336	0
TAP	10	0	7
TAP	10	48	0
TAP	10	48	1
TAP	10	96	2
TAP	10	120	3
TAP	10	168	5
TAP	10	192	4
TAP	10	240	1
TAP	10	264	0
TAP	10	312	6
TAP	10	336	7
TAP	11	0	0
TAP	11	48	6
TAP	11	48	7
TAP	11	96	0
TAP	11	120	1
TAP	11	168	7
TAP	11	192	6
TAP	11	240	3
TAP	11	264	2
TAP	11	312	4
TAP	11	336	5
TAP	12	0	7
TAP	12	48	0
TAP	12	48	1
TAP	12	96	7
TAP	12	120	6
TAP	12	168	0
TAP	12	192	1
TAP	12	240	4
TAP	12	264	5
TAP	12	312	3
BRK	12	336	2
TAP	13	0	1
TAP	13	48	0
TAP	13	96	1
TAP	13	120	2
TAP	13	144	1
TAP	13	192	4
TAP	13	240	5
TAP	13	288	4
TAP	13	312	3
TAP	13	336	4
TAP	14	0	6
TAP	14	48	5
TAP	14	96	6
TAP	14	120	7
TAP	14	144	6
TAP	14	192	0
TAP	14	240	7
TAP	14	288	0
TAP	14	312	1
TAP	14	336	0
TAP	15	0	2
TAP	15	48	1
TAP	15	96	2
TAP	15	120	3
TAP	15	144	2
TAP	15	192	4
TAP	15	240	3
TAP	15	288	4
TAP	15	312	5
TAP	15	336	4
TAP	16	0	3
TAP	16	48	2
TAP	16	96	1
TAP	16	120	2
TAP	16	144	1
HLD	16	192	3	48
HLD	16	240	5	48
HLD	16	288	7	48
TAP	16	336	1
TAP	17	0	0
TAP	17	48	6
TAP	17	48	7
TAP	17	96	5
TAP	17	120	6
TAP	17	144	5
TAP	17	192	4
TAP	17	240	3
TAP	17	240	4
TAP	17	288	2
TAP	17	312	3
TAP	17	336	2
TAP	18	0	1
TAP	18	48	1
TAP	18	48	2
TAP	18	96	0
TAP	18	120	1
TAP	18	144	0
TAP	18	192	5
TAP	18	240	5
TAP	18	240	6
TAP	18	288	7
TAP	18	312	6
TAP	18	336	7
TAP	19	0	5
TAP	19	48	4
TAP	19	48	5
TAP	19	96	5
TAP	19	120	6
TAP	19	144	5
TAP	19	192	6
TAP	19	240	6
TAP	19	240	7
TAP	19	288	7
TAP	19	312	0
TAP	19	336	7
HLD	20	0	1	48
HLD	20	48	3	48
HLD	20	96	5	48
HLD	20	144	7	48
HLD	20	192	6	48
HLD	20	240	4	48
HLD	20	288	2	72
HLD	20	360	5	312
TAP	21	336	6
TAP	21	360	7
TAP	22	0	0
HLD	22	24	1	264
TAP	22	288	0
TAP	22	312	7
TAP	22	336	6
TAP	22	360	5
TAP	23	0	4
TAP	23	16	5
TAP	23	32	6
TAP	23	48	7
TAP	23	64	0
TAP	23	80	1
TAP	23	96	2
HLD	23	120	1	408
TAP	24	144	2
TAP	24	160	3
TAP	24	176	4
TAP	24	192	5
TAP	24	208	6
TAP	24	224	7
TAP	24	240	0
TAP	24	256	1
TAP	24	272	2
TAP	24	288	3
TAP	24	312	2
TAP	24	336	1
TAP	24	360	0
HLD	25	0	3	72
TAP	25	72	4
TAP	25	96	5
TAP	25	144	5
TAP	25	168	6
HLD	25	192	7	72
TAP	25	264	0
TAP	25	288	7
TAP	25	336	7
TAP	25	360	6
HLD	26	0	5	72
TAP	26	72	4
TAP	26	96	3
TAP	26	144	3
TAP	26	168	2
HLD	26	192	3	72
TAP	26	264	4
TAP	26	288	5
TAP	26	336	5
TAP	26	360	6
HLD	27	0	5	72
TAP	27	72	4
TAP	27	96	5
TAP	27	144	5
TAP	27	168	6
HLD	27	192	7	72
TAP	27	264	6
TAP	27	288	5
TAP	27	336	5
TAP	27	360	4
HLD	28	0	3	72
TAP	28	72	4
TAP	28	96	3
TAP	28	144	3
TAP	28	168	2
HLD	28	192	3	48
HLD	28	240	5	48
HLD	28	288	7	48
TAP	28	336	1
HLD	29	0	2	72
TAP	29	72	3
TAP	29	96	2
TAP	29	144	2
TAP	29	168	1
HLD	29	192	0	72
TAP	29	264	1
TAP	29	288	0
TAP	29	336	0
TAP	29	360	7
HLD	30	0	6	72
TAP	30	72	7
TAP	30	96	0
TAP	30	144	0
TAP	30	168	1
HLD	30	192	2	72
TAP	30	264	3
TAP	30	288	4
TAP	30	336	4
TAP	30	360	3
HLD	31	0	2	72
TAP	31	72	1
TAP	31	96	0
TAP	31	144	0
TAP	31	168	7
HLD	31	192	6	72
TAP	31	264	7
TAP	31	288	6
TAP	31	336	6
TAP	32	0	5
TAP	32	16	6
TAP	32	32	7
TAP	32	48	0
TAP	32	64	1
TAP	32	80	2
TAP	32	96	3
TAP	32	112	4
TAP	32	128	5
TAP	32	144	6
TAP	32	160	7
TAP	32	176	0
TAP	32	192	1
TAP	32	208	2
TAP	32	224	3
TAP	32	240	4
TAP	32	256	5
TAP	32	272	6
TAP	32	288	7
TAP	32	304	0
TAP	32	320	1
TAP	32	336	2
TAP	32	352	3
TAP	32	368	4
HLD	33	0	5	192
TAP	33	240	7
TAP	33	288	7
TAP	33	336	7
TAP	33	365	6
TAP	34	48	5
TAP	34	96	4
TAP	34	144	4
TAP	34	173	5
TAP	34	240	6
TAP	34	269	6
TAP	34	288	7
TAP	34	317	7
TAP	34	365	0
TAP	35	0	1
TAP	35	29	1
TAP	35	48	2
TAP	35	77	2
TAP	35	96	3
TAP	35	125	3
TAP	35	144	4
TAP	35	173	4
TAP	35	192	5
TAP	35	221	5
TAP	35	240	6
TAP	35	269	6
TAP	35	288	7
TAP	35	317	7
TAP	35	336	6
TAP	35	365	6
TAP	36	0	5
TAP	36	29	5
TAP	36	48	4
TAP	36	77	4
TAP	36	96	3
TAP	36	125	3
TAP	36	144	2
TAP	36	173	2
TAP	36	192	1
TAP	36	240	1
TAP	36	288	0
TAP	36	317	0
TAP	36	336	7
TAP	36	365	7
HLD	37	0	6	192
TAP	37	221	7
TAP	37	240	6
TAP	37	269	6
TAP	37	288	4
TAP	37	317	4
TAP	37	336	2
TAP	37	365	2
TAP	38	0	0
TAP	38	29	0
TAP	38	48	1
TAP	38	77	1
TAP	38	96	3
TAP	38	125	3
TAP	38	144	5
TAP	38	173	5
TAP	38	192	6
TAP	38	240	7
TAP	38	288	0
TAP	38	336	1
BRK	39	0	0
BRK	39	0	5
TAP	39	32	6
TAP	39	64	7
BRK	39	96	1
BRK	39	96	4
TAP	39	128	2
TAP	39	160	3
BRK	39	192	2
BRK	39	192	7
TAP	39	224	0
TAP	39	256	1
BRK	39	288	3
BRK	39	288	6
TAP	39	320	5
TAP	39	352	4
TAP	40	0	3
TAP	40	24	4
TAP	40	48	5
TAP	40	72	6
TAP	40	96	7
TAP	40	120	0
TAP	40	144	1
TAP	40	168	2
TAP	40	192	3
TAP	40	216	4
TAP	40	240	5
TAP	40	264	6
STR	40	288	7
SI_	40	288	7	96	48	3
STR	41	192	7
SCL	41	192	7	96	72	4
TAP	41	240	1
STR	41	288	3
SCR	41	288	3	96	72	6
TAP	41	336	1
STR	42	0	7
SCL	42	0	7	96	72	4
TAP	42	48	1
STR	42	96	3
SCR	42	96	3	96	72	6
TAP	42	144	1
STR	42	192	7
SCL	42	192	7	96	72	4
TAP	42	240	1
STR	42	288	3
SCL	42	288	3	96	48	0
STR	42	336	0
SCL	42	336	0	96	48	5
TAP	43	192	7
TAP	43	240	6
TAP	43	264	5
TAP	43	288	6
TAP	43	336	5
TAP	43	360	4
TAP	44	0	5
TAP	44	48	4
TAP	44	72	3
TAP	44	96	4
TAP	44	144	3
TAP	44	168	2
TAP	44	192	3
TAP	44	240	2
TAP	44	264	1
TAP	44	288	2
BRK	44	336	1
TAP	44	360	0
STR	45	0	1
SCL	45	0	1	96	48	6
STR	45	192	0
SCR	45	192	0	96	72	3
TAP	45	240	6
STR	45	288	4
SCL	45	288	4	96	72	1
TAP	45	336	6
STR	46	0	0
SCR	46	0	0	96	72	3
TAP	46	48	6
STR	46	96	4
SCL	46	96	4	96	72	1
TAP	46	144	6
STR	46	192	0
SCR	46	192	0	96	72	3
TAP	46	240	6
STR	46	288	4
SCR	46	288	4	96	48	7
STR	46	336	7
SCR	46	336	7	96	48	2
TAP	47	192	0
TAP	47	240	1
TAP	47	264	2
TAP	47	288	1
TAP	47	336	2
TAP	47	360	3
TAP	48	0	2
TAP	48	48	3
TAP	48	72	4
TAP	48	96	3
TAP	48	144	4
TAP	48	168	5
TAP	48	192	4
TAP	48	240	5
TAP	48	264	6
TAP	48	288	5
BRK	48	336	6
TAP	48	360	7
STR	49	0	6
SI_	49	0	6	96	48	2
STR	49	192	6
SCL	49	192	6	96	72	3
TAP	49	240	0
STR	49	288	2
SCR	49	288	2	96	72	5
TAP	49	336	0
STR	50	0	6
SCL	50	0	6	96	72	3
TAP	50	48	0
STR	50	96	2
SCR	50	96	2	96	72	5
TAP	50	144	0
STR	50	192	6
SCL	50	192	6	96	72	3
TAP	50	240	0
STR	50	288	2
SCR	50	288	2	96	48	5
STR	50	336	5
SCR	50	336	5	96	48	0
TAP	51	192	0
TAP	51	240	6
TAP	51	264	5
TAP	51	288	7
TAP	51	336	5
TAP	51	360	4
TAP	52	0	6
TAP	52	48	4
TAP	52	72	3
TAP	52	96	5
TAP	52	144	3
TAP	52	168	2
TAP	52	192	4
TAP	52	240	2
TAP	52	264	1
TAP	52	288	3
BRK	52	336	1
TAP	52	360	0
STR	53	0	2
SI_	53	0	2	96	48	6
STR	53	192	1
SCR	53	192	1	96	72	4
TAP	53	240	7
STR	53	288	5
SCL	53	288	5	96	72	2
TAP	53	336	7
STR	54	0	1
SCR	54	0	1	96	72	4
TAP	54	48	7
STR	54	96	5
SCL	54	96	5	96	72	2
TAP	54	144	7
STR	54	192	1
SCR	54	192	1	96	72	4
TAP	54	240	7
STR	54	288	5
SCL	54	288	5	96	48	2
STR	54	336	2
SCL	54	336	2	96	48	7
TAP	55	192	7
TAP	55	240	1
TAP	55	264	2
TAP	55	288	0
TAP	55	336	2
TAP	55	360	3
TAP	56	0	1
TAP	56	48	3
TAP	56	72	4
TAP	56	96	2
TAP	56	144	4
TAP	56	168	5
TAP	56	192	3
TAP	56	240	5
TAP	56	264	6
TAP	56	288	4
BRK	56	336	6
TAP	56	360	7
STR	57	0	5
SCL	57	0	5	96	48	2
TAP	57	192	7
TAP	57	240	6
TAP	57	240	7
TAP	57	288	6
TAP	57	312	5
TAP	57	360	5
TAP	58	0	4
TAP	58	48	4
TAP	58	72	3
TAP	58	120	3
TAP	58	144	2
TAP	58	192	2
TAP	58	240	1
TAP	58	240	2
TAP	58	288	1
TAP	58	312	0
TAP	58	360	0
TAP	59	0	7
TAP	59	48	7
TAP	59	72	6
TAP	59	120	6
TAP	59	144	5
TAP	59	192	5
TAP	59	240	6
TAP	59	240	7
TAP	59	288	0
TAP	59	312	1
TAP	59	360	1
TAP	60	0	2
TAP	60	48	2
TAP	60	72	3
TAP	60	120	3
TAP	60	144	4
TAP	60	192	4
TAP	60	240	5
TAP	60	240	6
TAP	60	288	7
TAP	60	312	0
TAP	60	360	0
TAP	61	0	1
TAP	61	48	1
TAP	61	72	2
TAP	61	120	2
TAP	61	144	1
TAP	61	192	1
TAP	61	240	1
TAP	61	240	7
TAP	61	288	7
TAP	61	312	6
TAP	61	360	6
TAP	62	0	5
TAP	62	48	5
TAP	62	72	4
TAP	62	120	4
TAP	62	144	3
TAP	62	192	3
TAP	62	240	0
TAP	62	240	2
TAP	62	288	7
TAP	62	312	0
TAP	62	360	0
TAP	63	0	1
TAP	63	48	1
TAP	63	72	2
TAP	63	120	2
TAP	63	144	3
TAP	63	192	3
TAP	63	240	4
TAP	63	240	6
TAP	63	288	7
TAP	63	312	0
TAP	63	360	0
TAP	64	0	1
TAP	64	48	1
TAP	64	72	2
TAP	64	120	2
TAP	64	144	3
TAP	64	192	3
TAP	64	240	4
TAP	64	240	6
TAP	64	288	7
TAP	64	312	6
TAP	64	360	6
TAP	65	0	5
TAP	65	48	5
TAP	65	72	4
TAP	65	120	4
TAP	65	144	3
TAP	65	192	3
TAP	65	240	1
TAP	65	240	2
TAP	65	288	3
TAP	65	312	5
TAP	65	360	5
TAP	66	0	7
TAP	66	48	7
TAP	66	72	0
TAP	66	120	0
TAP	66	144	1
BRK	66	168	2

T_REC_TAP	567
T_REC_BRK	14
T_REC_XTP	0
T_REC_HLD	31
T_REC_XHO	0
T_REC_STR	33
T_REC_BST	0
T_REC_XST	0
T_REC_TTP	0
T_REC_THO	0
T_REC_SLD	33
T_REC_ALL	678
T_NUM_TAP	600
T_NUM_BRK	14
T_NUM_HLD	31
T_NUM_SLD	33
T_NUM_ALL	678
T_JUDGE_TAP	614
T_JUDGE_HLD	70
T_JUDGE_SLD	33
T_JUDGE_ALL	717
TTM_EACHPAIRS	27
TTM_SCR_TAP	300000
TTM_SCR_BRK	36400
TTM_SCR_HLD	31000
TTM_SCR_SLD	49500
TTM_SCR_ALL	416900
TTM_SCR_S	403050
TTM_SCR_SS	415500
TTM_RAT_ACV	10033

