VERSION	0.00.00	1.03.00
FES_MODE	0
BPM_DEF	155.000	155.000	155.000	155.000
MET_DEF	4	4
RESOLUTION	384
CLK_DEF	384
COMPATIBLE_CODE	MA2

BPM	0	0	155.000
MET	0	0	4	4

HLD	1	0	7	96
HLD	1	96	5	96
TAP	1	192	4
TAP	1	264	5
TAP	1	336	6
HLD	3	0	0	96
HLD	3	96	2	96
TAP	3	192	3
TAP	3	264	2
TAP	3	336	1
HLD	5	0	7	96
HLD	5	96	5	96
TAP	5	192	4
TAP	5	264	5
TAP	5	336	6
STR	6	0	7
SI_	6	0	7	96	48	3
TAP	6	192	4
TAP	6	264	5
TAP	6	336	6
HLD	7	0	0	96
HLD	7	96	2	96
TAP	7	192	3
TAP	7	264	2
TAP	7	336	1
STR	8	0	0
SI_	8	0	0	96	48	4
TAP	8	192	3
TAP	8	264	2
TAP	8	336	1
HLD	9	0	7	96
HLD	9	96	5	96
TAP	9	192	4
TAP	9	264	5
TAP	9	336	6
STR	10	0	7
SCR	10	0	7	96	48	2
HLD	10	192	4	72
HLD	10	264	5	72
TAP	10	336	6
HLD	11	0	0	96
HLD	11	96	2	96
TAP	11	192	3
TAP	11	264	2
TAP	11	336	1
STR	12	0	0
SCL	12	0	0	96	48	5
HLD	12	192	3	72
HLD	12	264	2	72
BRK	12	336	1
TAP	13	0	5
TAP	13	48	7
TAP	13	96	3
TAP	13	144	3
TAP	13	192	2
TAP	13	240	0
TAP	13	288	4
TAP	13	336	4
TAP	14	0	6
TAP	14	48	4
TAP	14	96	5
TAP	14	144	5
TAP	14	192	1
TAP	14	240	7
TAP	14	288	6
TAP	14	336	7
TAP	15	0	2
TAP	15	48	0
TAP	15	96	4
TAP	15	144	4
TAP	15	192	3
TAP	15	240	5
TAP	15	288	1
TAP	15	336	1
TAP	16	0	2
TAP	16	48	6
TAP	16	96	1
TAP	16	144	0
TAP	16	192	7
TAP	16	240	6
TAP	16	288	1
TAP	16	336	5
TAP	17	0	4
TAP	17	48	5
TAP	17	96	1
TAP	17	144	1
TAP	17	192	3
TAP	17	240	2
TAP	17	288	6
TAP	17	336	6
TAP	18	0	7
TAP	18	48	6
TAP	18	96	2
TAP	18	144	2
TAP	18	192	5
TAP	18	240	6
TAP	18	288	7
TAP	18	336	0
TAP	19	0	3
TAP	19	48	2
TAP	19	96	6
TAP	19	144	6
TAP	19	192	4
TAP	19	240	5
TAP	19	288	1
TAP	19	336	1
TAP	20	0	5
TAP	20	48	4
TAP	20	96	3
TAP	20	144	2
STR	20	192	1
SCL	20	192	1	96	192	6
STR	20	240	2
SCR	20	240	2	96	192	5
STR	21	288	3
SCL	21	288	3	96	192	0
STR	21	336	4
SCR	21	336	4	96	192	7
STR	22	288	5
SCL	22	288	5	96	192	2
STR	22	336	6
SCR	22	336	6	96	192	1
TAP	25	0	5
TAP	25	48	5
TAP	25	96	1
TAP	25	144	3
TAP	25	192	2
TAP	25	240	2
TAP	25	288	6
TAP	25	336	4
TAP	26	0	2
TAP	26	0	3
TAP	26	48	3
TAP	26	48	4
TAP	26	96	4
TAP	26	96	5
TAP	26	144	3
TAP	26	192	6
TAP	26	240	7
TAP	26	288	0
TAP	26	336	1
TAP	27	0	2
TAP	27	48	2
TAP	27	96	6
TAP	27	144	4
TAP	27	192	5
TAP	27	240	5
TAP	27	288	1
TAP	27	336	3
TAP	28	0	2
TAP	28	48	0
TAP	28	96	7
TAP	28	144	6
TAP	28	192	5
TAP	28	240	7
TAP	28	288	0
TAP	28	336	1
TAP	29	0	2
TAP	29	48	4
TAP	29	96	2
TAP	29	144	3
TAP	29	192	5
TAP	29	240	3
TAP	29	288	5
TAP	29	336	4
TAP	30	0	6
TAP	30	48	1
TAP	30	96	4
TAP	30	144	3
STR	30	192	6
SI_	30	192	6	96	48	2
STR	30	240	1
SI_	30	240	1	96	48	5
TAP	31	0	2
TAP	31	48	3
TAP	31	96	4
TAP	31	144	5
TAP	31	192	2
TAP	31	240	4
TAP	31	288	3
TAP	32	0	2
TAP	32	24	3
TAP	32	48	2
TAP	32	72	1
TAP	32	96	2
TAP	32	120	3
TAP	32	144	2
TAP	32	168	1
TAP	32	192	2
TAP	33	0	0
TAP	33	48	2
TAP	33	96	2
TAP	33	144	4
TAP	33	192	4
TAP	33	240	6
TAP	33	289	6
TAP	33	336	0
TAP	34	0	7
TAP	34	48	5
TAP	34	96	5
TAP	34	144	3
TAP	34	192	3
TAP	34	240	1
TAP	34	288	1
TAP	34	336	7
STR	35	0	0
SI_	35	0	0	96	48	5
STR	35	48	5
SI_	35	48	5	96	48	0
STR	35	192	7
SI_	35	192	7	96	48	2
STR	35	240	2
SI_	35	240	2	96	48	7
TAP	36	0	0
TAP	36	48	6
TAP	36	96	1
TAP	36	144	7
STR	36	192	0
SCR	36	192	0	96	48	3
STR	36	192	6
SCL	36	192	6	96	48	3
HLD	37	0	3	192
HLD	37	0	7	192
TAP	37	240	6
TAP	37	288	2
TAP	37	336	6
TAP	38	0	1
TAP	38	48	5
TAP	38	96	1
TAP	38	144	5
STR	38	192	0
SI_	38	192	0	96	48	4
TAP	39	0	3
TAP	39	32	5
TAP	39	64	2
TAP	39	96	6
TAP	39	128	1
TAP	39	160	7
TAP	39	192	0
TAP	39	224	6
TAP	39	256	1
TAP	39	288	5
TAP	39	320	2
TAP	39	352	6
TAP	40	0	3
TAP	40	24	7
TAP	40	48	2
TAP	40	72	6
TAP	40	96	1
TAP	40	120	5
TAP	40	144	0
TAP	40	168	4
TAP	40	192	1
TAP	40	216	5
TAP	40	240	2
TAP	40	264	6
TAP	40	288	3
TAP	40	312	7
BRK	41	192	2
BRK	41	192	7
BRK	41	288	0
BRK	41	288	5
TAP	42	0	3
TAP	42	24	2
TAP	42	72	2
TAP	42	96	5
TAP	42	144	5
TAP	42	192	2
TAP	42	240	7
TAP	42	288	3
STR	42	312	6
SCL	42	312	6	96	72	3
TAP	42	360	6
TAP	43	192	5
TAP	43	240	4
TAP	43	288	2
TAP	43	336	3
TAP	44	0	5
TAP	44	48	2
TAP	44	48	3
TAP	44	96	2
TAP	44	144	4
TAP	44	144	5
TAP	44	192	6
TAP	44	240	5
TAP	44	288	1
TAP	44	336	2
TAP	45	0	1
TAP	45	0	7
TAP	45	48	0
TAP	45	96	0
TAP	45	96	6
TAP	45	144	7
BRK	45	192	0
BRK	45	192	5
BRK	45	288	2
BRK	45	288	7
TAP	46	0	4
TAP	46	24	5
TAP	46	72	5
TAP	46	96	2
TAP	46	144	2
TAP	46	192	5
TAP	46	240	0
TAP	46	288	4
STR	46	312	1
SCR	46	312	1	96	72	4
TAP	46	360	1
TAP	47	192	1
TAP	47	240	4
TAP	47	288	1
TAP	47	288	3
TAP	47	336	2
TAP	47	336	4
TAP	48	0	6
TAP	48	48	3
TAP	48	96	4
TAP	48	96	6
TAP	48	144	3
TAP	48	144	5
TAP	48	192	6
TAP	48	240	0
TAP	48	288	6
TAP	48	288	7
TAP	48	336	0
TAP	48	336	7
TAP	49	0	1
TAP	49	48	7
TAP	49	96	0
TAP	49	96	1
TAP	49	144	0
TAP	49	144	7
BRK	49	192	0
BRK	49	192	1
BRK	49	288	6
BRK	49	288	7
TAP	50	0	3
TAP	50	24	2
TAP	50	72	2
TAP	50	96	5
TAP	50	144	5
TAP	50	192	2
TAP	50	240	7
TAP	50	288	3
STR	50	312	6
SCL	50	312	6	96	72	3
TAP	50	360	6
STR	51	192	1
SI_	51	192	1	96	48	4
STR	51	288	6
SI_	51	288	6	96	48	3
STR	52	0	0
SI_	52	0	0	96	48	5
STR	52	96	7
SI_	52	96	7	96	48	2
STR	52	192	1
SI_	52	192	1	96	48	5
STR	52	288	6
SI_	52	288	6	96	48	2
STR	53	0	0
SI_	53	0	0	96	48	4
BRK	53	192	6
BRK	53	192	7
BRK	53	288	0
BRK	53	288	1
TAP	54	0	3
TAP	54	24	2
TAP	54	48	3
TAP	54	72	2
TAP	54	96	5
TAP	54	120	4
TAP	54	144	5
TAP	54	168	4
TAP	54	192	5
TAP	54	240	0
TAP	54	288	4
STR	54	312	1
SCR	54	312	1	96	72	4
TAP	54	360	1
TAP	55	192	1
TAP	55	216	2
TAP	55	240	1
TAP	55	288	5
TAP	55	312	4
TAP	55	336	5
TAP	56	0	2
TAP	56	24	3
TAP	56	48	2
TAP	56	96	6
TAP	56	120	5
TAP	56	144	6
TAP	56	192	1
TAP	56	216	0
TAP	56	240	1
TAP	56	264	7
TAP	56	288	0
TAP	56	312	6
TAP	56	336	7
TAP	56	360	6
TAP	57	0	2
TAP	57	48	3
TAP	57	96	4
STR	57	144	5
SI_	57	144	5	96	336	1
TAP	59	192	7
HLD	59	240	7	72
HLD	59	312	0	72
HLD	60	0	1	72
HLD	60	72	2	72
STR	60	144	3
SI_	60	144	3	96	48	7
TAP	60	192	3
TAP	61	0	6
TAP	61	72	5
TAP	61	144	4
TAP	61	192	0
HLD	61	240	0	72
HLD	61	312	7	72
HLD	62	0	6	72
HLD	62	72	5	72
STR	62	144	4
SI_	62	144	4	96	48	0
TAP	62	192	4
TAP	63	0	1
TAP	63	72	2
TAP	63	144	3
TAP	63	192	5
HLD	63	240	5	72
HLD	63	312	4	72
HLD	64	0	3	72
HLD	64	72	2	72
STR	64	144	1
SI_	64	144	1	96	48	5
TAP	64	192	1
TAP	65	0	6
TAP	65	72	7
TAP	65	144	0
TAP	65	192	7
TAP	65	240	0
TAP	65	288	6
TAP	65	312	1
TAP	65	360	5
TAP	66	0	2
TAP	66	48	4
TAP	66	72	3
TAP	66	120	5
TAP	66	144	2
TAP	66	144	5

T_REC_TAP	333
T_REC_BRK	17
T_REC_XTP	0
T_REC_HLD	30
T_REC_XHO	0
T_REC_STR	34
T_REC_BST	0
T_REC_XST	0
T_REC_TTP	0
T_REC_THO	0
T_REC_SLD	34
T_REC_ALL	448
T_NUM_TAP	367
T_NUM_BRK	17
T_NUM_HLD	30
T_NUM_SLD	34
T_NUM_ALL	448
T_JUDGE_TAP	384
T_JUDGE_HLD	64
T_JUDGE_SLD	34
T_JUDGE_ALL	482
TTM_EACHPAIRS	26
TTM_SCR_TAP	183500
TTM_SCR_BRK	44200
TTM_SCR_HLD	30000
TTM_SCR_SLD	51000
TTM_SCR_ALL	308700
TTM_SCR_S	297800
TTM_SCR_SS	307000
TTM_RAT_ACV	10055

