VERSION	0.00.00	1.03.00
FES_MODE	0
BPM_DEF	155.000	155.000	155.000	155.000
MET_DEF	4	4
RESOLUTION	384
CLK_DEF	384
COMPATIBLE_CODE	MA2

BPM	0	0	155.000
MET	0	0	4	4

TAP	5	0	0
TAP	5	96	0
TAP	5	192	1
TAP	5	288	1
TAP	6	0	7
TAP	6	96	7
TAP	6	192	6
TAP	6	288	6
TAP	7	0	5
TAP	7	96	5
TAP	7	192	4
TAP	7	288	4
TAP	8	0	2
TAP	8	96	2
TAP	8	192	3
TAP	8	288	3
TAP	9	0	7
TAP	9	96	7
TAP	9	192	6
TAP	9	288	4
TAP	9	288	5
TAP	10	0	0
TAP	10	96	0
TAP	10	192	1
TAP	10	288	2
TAP	10	288	3
TAP	11	0	7
TAP	11	96	7
TAP	11	192	6
TAP	11	288	4
TAP	11	288	5
TAP	12	0	0
TAP	12	96	0
TAP	12	192	1
TAP	12	288	2
TAP	12	288	3
TAP	13	0	7
TAP	13	96	7
TAP	13	192	5
TAP	13	288	5
TAP	14	0	6
TAP	14	96	6
TAP	14	192	4
TAP	14	288	4
TAP	14	288	5
TAP	15	0	0
TAP	15	96	0
TAP	15	192	2
TAP	15	288	2
TAP	16	0	1
TAP	16	96	1
TAP	16	192	2
TAP	16	192	3
TAP	16	288	2
TAP	16	288	3
TAP	17	0	1
TAP	17	96	1
TAP	17	192	0
TAP	17	288	0
TAP	18	0	7
TAP	18	96	7
TAP	18	192	6
TAP	18	288	6
TAP	18	288	7
TAP	19	0	5
TAP	19	96	5
TAP	19	192	4
TAP	19	288	4
TAP	20	0	3
TAP	20	96	3
TAP	20	192	2
STR	20	288	2
SCR	20	288	2	96	192	5
HLD	22	0	6	384
HLD	23	0	7	576
TAP	24	192	0
TAP	24	288	1
TAP	25	0	2
TAP	25	96	2
TAP	25	192	3
TAP	25	288	3
TAP	26	0	2
TAP	26	96	3
TAP	26	192	2
TAP	26	288	2
TAP	26	288	3
TAP	27	0	5
TAP	27	96	5
TAP	27	192	4
TAP	27	288	4
TAP	28	0	5
TAP	28	96	4
TAP	28	192	5
TAP	28	288	4
TAP	28	288	5
TAP	29	0	6
TAP	29	96	6
TAP	29	192	1
TAP	29	288	1
TAP	30	0	7
TAP	30	96	0
TAP	30	192	7
TAP	30	288	0
TAP	30	288	7
TAP	31	0	0
TAP	31	96	1
TAP	31	192	2
STR	31	288	3
SCR	31	288	3	96	192	6
HLD	33	0	2	192
TAP	33	192	3
HLD	34	0	5	192
TAP	34	192	4
TAP	35	0	2
TAP	35	96	2
TAP	35	96	3
TAP	35	192	5
TAP	35	288	4
TAP	35	288	5
TAP	36	0	2
TAP	36	96	2
TAP	36	96	3
TAP	36	192	5
TAP	36	288	4
TAP	36	288	5
HLD	37	0	6	192
TAP	37	192	5
HLD	38	0	1	192
TAP	38	192	2
BRK	39	0	6
BRK	39	192	1
TAP	40	0	0
TAP	40	48	0
TAP	40	96	7
TAP	40	144	7
TAP	40	192	0
TAP	40	240	0
BRK	40	288	7
TAP	41	192	0
TAP	41	192	7
TAP	41	288	0
TAP	41	288	1
TAP	42	0	0
TAP	42	0	7
TAP	42	96	6
TAP	42	96	7
TAP	42	192	0
TAP	42	192	7
STR	42	288	0
SI_	42	288	0	96	96	5
STR	42	288	1
SI_	42	288	1	96	96	4
TAP	43	192	2
TAP	43	288	2
TAP	43	288	3
TAP	44	0	5
TAP	44	96	4
TAP	44	96	5
TAP	44	192	2
TAP	44	288	2
TAP	44	288	3
TAP	45	0	4
TAP	45	0	5
TAP	45	96	4
TAP	45	96	5
TAP	45	192	0
TAP	45	192	7
TAP	45	288	6
TAP	45	288	7
TAP	46	0	0
TAP	46	0	7
TAP	46	96	0
TAP	46	96	1
TAP	46	192	0
TAP	46	192	7
STR	46	288	6
SI_	46	288	6	96	96	3
STR	46	288	7
SI_	46	288	7	96	96	2
TAP	47	192	5
TAP	47	288	4
TAP	47	288	5
TAP	48	0	2
TAP	48	96	2
TAP	48	96	3
TAP	48	192	5
TAP	48	288	4
TAP	48	288	5
TAP	49	0	2
TAP	49	0	3
TAP	49	96	2
TAP	49	96	3
TAP	49	192	3
TAP	49	192	4
TAP	49	288	4
TAP	49	288	5
TAP	50	0	3
TAP	50	0	4
TAP	50	96	2
TAP	50	96	3
TAP	50	192	3
TAP	50	192	4
STR	50	288	4
SI_	50	288	4	96	96	1
STR	50	288	5
SI_	50	288	5	96	96	0
TAP	51	192	6
TAP	51	240	6
TAP	51	288	6
TAP	52	0	0
TAP	52	48	0
TAP	52	96	0
TAP	52	192	7
TAP	52	240	7
TAP	52	288	7
TAP	53	0	1
TAP	53	48	1
TAP	53	96	1
TAP	53	192	3
TAP	53	192	4
TAP	53	288	2
TAP	53	288	3
TAP	54	0	3
TAP	54	0	4
TAP	54	96	4
TAP	54	96	5
TAP	54	192	3
TAP	54	192	4
STR	54	288	2
SI_	54	288	2	96	96	7
STR	54	288	3
SI_	54	288	3	96	96	6
TAP	55	192	1
TAP	55	240	1
TAP	55	288	1
TAP	56	0	7
TAP	56	48	7
TAP	56	96	7
TAP	56	192	0
TAP	56	240	0
TAP	56	288	0
TAP	57	0	6
TAP	57	48	6
BRK	57	96	6
TAP	57	192	5
TAP	57	288	4
TAP	57	288	5
TAP	58	0	2
TAP	58	96	2
TAP	58	96	3
TAP	58	192	5
TAP	58	288	4
TAP	58	288	5
TAP	59	0	2
TAP	59	96	2
TAP	59	96	3
TAP	59	192	4
TAP	59	288	4
TAP	59	288	5
TAP	60	0	3
TAP	60	96	2
TAP	60	96	3
TAP	60	192	4
TAP	60	288	4
TAP	60	288	5
TAP	61	0	3
TAP	61	96	2
TAP	61	96	3
TAP	61	192	5
TAP	61	288	4
TAP	61	288	6
TAP	62	0	5
TAP	62	96	4
TAP	62	96	6
TAP	62	192	2
TAP	62	288	1
TAP	62	288	3
TAP	63	0	2
TAP	63	96	1
TAP	63	96	3
TAP	63	192	5
TAP	63	288	4
TAP	63	288	6
TAP	64	0	2
TAP	64	96	1
TAP	64	96	3
TAP	64	192	5
TAP	64	288	4
TAP	64	288	6
TAP	65	0	2
TAP	65	96	1
TAP	65	96	3
TAP	65	192	2
TAP	65	288	1
TAP	66	0	0
STR	66	96	7
SI_	66	96	7	96	96	3

T_REC_TAP	265
T_REC_BRK	4
T_REC_XTP	0
T_REC_HLD	6
T_REC_XHO	0
T_REC_STR	11
T_REC_BST	0
T_REC_XST	0
T_REC_TTP	0
T_REC_THO	0
T_REC_SLD	11
T_REC_ALL	297
T_NUM_TAP	276
T_NUM_BRK	4
T_NUM_HLD	6
T_NUM_SLD	11
T_NUM_ALL	297
T_JUDGE_TAP	280
T_JUDGE_HLD	36
T_JUDGE_SLD	11
T_JUDGE_ALL	327
TTM_EACHPAIRS	65
TTM_SCR_TAP	138000
TTM_SCR_BRK	10400
TTM_SCR_HLD	6000
TTM_SCR_SLD	16500
TTM_SCR_ALL	170900
TTM_SCR_S	165400
TTM_SCR_SS	170500
TTM_RAT_ACV	10023

