VERSION	0.00.00	1.03.00
FES_MODE	0
BPM_DEF	155.000	155.000	155.000	155.000
MET_DEF	4	4
RESOLUTION	384
CLK_DEF	384
COMPATIBLE_CODE	MA2

BPM	0	0	155.000
MET	0	0	4	4

TAP	5	0	7
TAP	5	192	7
HLD	6	0	7	192
TAP	7	0	0
TAP	7	192	0
HLD	8	0	0	192
TAP	9	0	6
TAP	9	192	6
HLD	10	0	6	192
TAP	11	0	1
TAP	11	192	1
HLD	12	0	1	192
TAP	13	0	2
TAP	13	96	2
TAP	14	0	3
TAP	14	96	3
TAP	15	0	4
TAP	15	96	4
TAP	16	0	5
TAP	16	96	5
HLD	17	0	5	192
HLD	18	0	4	192
HLD	19	0	3	192
HLD	20	0	2	192
STR	21	0	1
SI_	21	0	1	96	288	4
STR	23	0	6
SI_	23	0	6	96	288	3
TAP	25	0	5
TAP	25	96	5
TAP	26	0	3
TAP	26	96	3
TAP	27	0	1
TAP	27	96	1
TAP	28	0	7
TAP	28	96	7
TAP	29	0	0
TAP	29	0	7
TAP	29	96	0
TAP	29	96	7
TAP	30	0	4
TAP	30	0	5
TAP	30	96	4
TAP	30	96	5
TAP	31	0	2
TAP	31	0	3
TAP	31	96	2
TAP	31	96	3
HLD	32	0	3	192
HLD	32	0	4	192
TAP	33	0	2
STR	33	96	2
SI_	33	96	2	96	192	5
TAP	35	0	6
STR	35	96	6
SI_	35	96	6	96	192	1
TAP	37	0	0
STR	37	96	0
SI_	37	96	0	96	192	4
TAP	39	0	2
TAP	39	192	6
HLD	40	0	0	192
HLD	40	0	7	192
BRK	40	288	0
BRK	40	288	7
TAP	41	192	7
TAP	41	288	7
TAP	42	0	6
TAP	42	96	6
HLD	42	192	5	192
TAP	43	192	0
TAP	43	288	0
TAP	44	0	1
TAP	44	96	1
HLD	44	192	2	192
TAP	45	192	4
TAP	45	288	4
TAP	46	0	3
TAP	46	96	3
HLD	46	192	2	192
HLD	46	192	5	192
HLD	47	192	3	96
HLD	48	0	5	96
HLD	48	192	1	96
HLD	49	0	7	96
TAP	49	192	1
TAP	49	288	1
HLD	50	0	1	96
TAP	50	192	2
TAP	50	288	2
TAP	51	0	2
TAP	51	192	4
TAP	51	288	4
HLD	52	0	4	96
TAP	52	192	3
TAP	52	288	3
BRK	53	0	3
TAP	53	192	6
TAP	53	288	6
HLD	54	0	6	96
TAP	54	192	5
TAP	54	288	5
TAP	55	0	5
HLD	55	192	3	96
HLD	56	0	2	96
HLD	56	192	1	96
TAP	57	0	0
STR	57	96	0
SI_	57	96	0	96	288	4
TAP	59	288	0
TAP	60	96	7
TAP	60	288	1
TAP	61	96	6
TAP	61	288	3
TAP	62	96	4
TAP	62	288	2
TAP	63	96	5
TAP	63	288	0
TAP	63	288	1
TAP	64	96	0
TAP	64	96	7
TAP	64	288	6
TAP	64	288	7
TAP	65	96	0
TAP	65	96	7
TAP	65	192	7
TAP	65	288	7
TAP	66	0	1
STR	66	96	1
SI_	66	96	1	96	192	5

T_REC_TAP	87
T_REC_BRK	3
T_REC_XTP	0
T_REC_HLD	26
T_REC_XHO	0
T_REC_STR	7
T_REC_BST	0
T_REC_XST	0
T_REC_TTP	0
T_REC_THO	0
T_REC_SLD	7
T_REC_ALL	130
T_NUM_TAP	94
T_NUM_BRK	3
T_NUM_HLD	26
T_NUM_SLD	7
T_NUM_ALL	130
T_JUDGE_TAP	97
T_JUDGE_HLD	84
T_JUDGE_SLD	7
T_JUDGE_ALL	188
TTM_EACHPAIRS	14
TTM_SCR_TAP	47000
TTM_SCR_BRK	7800
TTM_SCR_HLD	26000
TTM_SCR_SLD	10500
TTM_SCR_ALL	91300
TTM_SCR_S	88300
TTM_SCR_SS	91000
TTM_RAT_ACV	10032

