VERSION	0.00.00	1.03.00
FES_MODE	0
BPM_DEF	145.000	145.000	145.000	145.000
MET_DEF	4	4
RESOLUTION	384
CLK_DEF	384
COMPATIBLE_CODE	MA2

BPM	0	0	145.000
MET	0	0	4	4

TAP	1	0	0
TAP	1	48	6
TAP	1	72	7
TAP	1	120	6
TAP	1	144	7
TAP	1	192	5
TAP	1	288	7
TAP	1	336	7
TAP	2	0	7
TAP	2	48	1
TAP	2	72	0
TAP	2	120	1
TAP	2	144	0
TAP	2	192	2
TAP	2	288	1
TAP	2	336	1
TAP	3	0	1
TAP	3	48	3
TAP	3	72	2
TAP	3	120	3
TAP	3	144	2
TAP	3	192	4
TAP	3	288	6
TAP	3	337	6
TAP	4	1	6
TAP	4	48	4
TAP	4	72	5
TAP	4	120	4
TAP	4	144	5
TAP	4	192	3
TAP	4	288	0
TAP	4	312	7
TAP	4	336	0
TAP	4	360	7
TAP	5	0	0
TAP	5	48	3
TAP	5	72	2
TAP	5	120	3
TAP	5	144	2
TAP	5	192	4
TAP	5	288	2
TAP	5	312	3
TAP	5	336	2
TAP	6	0	7
TAP	6	48	4
TAP	6	72	5
TAP	6	120	4
TAP	6	144	5
TAP	6	192	3
TAP	6	288	5
TAP	6	312	4
TAP	6	336	5
TAP	7	0	2
TAP	7	48	7
TAP	7	72	0
TAP	7	120	7
TAP	7	144	0
TAP	7	192	5
TAP	7	288	1
TAP	7	312	0
TAP	7	336	1
TAP	8	0	5
TAP	8	48	0
TAP	8	72	7
TAP	8	120	0
TAP	8	144	7
TAP	8	192	3
TAP	8	216	4
TAP	8	240	3
BRK	8	288	7
TAP	9	0	0
TAP	9	96	0
TAP	9	144	1
TAP	9	192	2
TAP	9	240	7
TAP	9	288	6
TAP	9	336	5
TAP	10	0	1
TAP	10	48	2
TAP	10	96	3
TAP	10	144	4
TAP	10	192	6
TAP	10	240	5
TAP	10	288	4
TAP	10	336	3
TAP	11	0	0
TAP	11	96	7
TAP	11	144	6
TAP	11	192	5
TAP	11	240	1
TAP	11	288	2
TAP	11	336	3
TAP	12	0	6
TAP	12	48	5
TAP	12	96	4
TAP	12	144	3
TAP	12	192	2
TAP	12	240	3
TAP	12	288	4
TAP	12	336	5
TAP	13	0	0
TAP	13	96	6
TAP	13	144	7
TAP	13	192	0
TAP	13	240	2
TAP	13	288	1
TAP	13	336	0
STR	14	0	7
SI_	14	0	7	96	72	2
TAP	14	48	6
TAP	14	96	5
TAP	14	144	4
STR	14	192	3
SI_	14	192	3	96	72	6
TAP	14	240	2
TAP	14	288	1
TAP	14	336	0
TAP	15	0	0
TAP	15	96	1
TAP	15	144	0
TAP	15	192	7
TAP	15	240	5
TAP	15	288	6
TAP	15	336	7
STR	16	0	0
SI_	16	0	0	96	72	5
TAP	16	48	1
TAP	16	96	2
TAP	16	144	3
STR	16	192	4
SI_	16	192	4	96	72	1
TAP	16	240	5
TAP	16	288	6
TAP	16	336	7
HLD	17	0	0	72
HLD	17	72	6	72
STR	17	144	4
SI_	17	144	4	96	48	1
TAP	17	240	7
TAP	17	288	7
HLD	18	0	7	72
HLD	18	72	1	72
STR	18	144	3
SI_	18	144	3	96	48	6
TAP	18	240	0
TAP	18	288	0
HLD	19	0	2	72
HLD	19	72	6	72
STR	19	144	0
SI_	19	144	0	96	48	4
TAP	19	240	5
TAP	19	288	5
TAP	20	0	2
TAP	20	0	5
STR	20	72	0
SI_	20	72	0	96	48	3
STR	20	72	7
SI_	20	72	7	96	48	4
TAP	20	240	2
TAP	20	288	3
TAP	20	336	5
STR	21	0	4
SCL	21	0	4	96	48	1
STR	21	72	4
SCR	21	72	4	96	48	7
TAP	21	144	4
TAP	21	240	1
TAP	21	288	1
TAP	22	0	0
TAP	22	72	4
TAP	22	144	0
TAP	22	240	0
TAP	22	240	4
TAP	22	288	1
TAP	22	288	5
TAP	22	336	2
TAP	22	336	6
TAP	23	0	3
STR	23	0	7
SCR	23	0	7	96	48	2
STR	23	72	7
SCL	23	72	7	96	48	4
TAP	23	144	7
TAP	23	240	6
TAP	23	288	6
TAP	23	336	3
TAP	24	0	3
TAP	24	72	7
TAP	24	144	3
TAP	24	240	5
TAP	24	288	1
TAP	25	0	7
TAP	25	96	7
TAP	25	144	6
TAP	25	192	5
TAP	25	240	0
TAP	25	288	1
TAP	25	336	2
TAP	26	0	6
TAP	26	48	5
TAP	26	96	4
TAP	26	144	3
TAP	26	192	1
TAP	26	240	2
TAP	26	288	3
TAP	26	336	4
TAP	27	0	7
TAP	27	96	1
TAP	27	144	2
TAP	27	192	3
TAP	27	240	7
TAP	27	288	6
TAP	27	336	5
TAP	28	0	2
TAP	28	48	3
TAP	28	96	4
TAP	28	144	5
TAP	28	192	6
TAP	28	240	5
TAP	28	288	4
TAP	28	336	3
TAP	29	0	7
TAP	29	96	1
TAP	29	144	0
TAP	29	192	7
TAP	29	240	5
TAP	29	288	6
TAP	29	336	7
STR	30	0	0
SCL	30	0	0	96	72	5
TAP	30	48	1
TAP	30	96	2
TAP	30	144	3
STR	30	192	4
SCL	30	192	4	96	72	1
TAP	30	240	5
TAP	30	288	6
TAP	30	336	7
TAP	31	0	7
TAP	31	96	6
TAP	31	144	7
TAP	31	192	0
TAP	31	240	2
TAP	31	288	1
TAP	31	336	0
STR	32	0	7
SCR	32	0	7	96	72	2
TAP	32	48	6
TAP	32	96	5
TAP	32	144	4
STR	32	192	3
SCR	32	192	3	96	72	6
TAP	32	240	2
TAP	32	288	1
TAP	32	336	0
HLD	33	0	7	72
HLD	33	72	1	72
STR	33	144	3
SI_	33	144	3	96	72	6
TAP	33	240	0
TAP	33	288	0
HLD	34	0	0	72
HLD	34	72	6	72
STR	34	144	4
SI_	34	144	4	96	72	1
TAP	34	240	7
TAP	34	288	7
HLD	35	0	5	72
HLD	35	72	1	72
STR	35	144	7
SI_	35	144	7	96	72	3
TAP	35	240	2
TAP	35	288	2
TAP	36	0	2
TAP	36	0	5
STR	36	72	0
SI_	36	72	0	96	48	3
STR	36	72	7
SI_	36	72	7	96	48	4
TAP	36	240	5
TAP	36	288	4
TAP	36	336	2
STR	37	0	3
SCR	37	0	3	96	48	6
STR	37	72	3
SCL	37	72	3	96	48	0
TAP	37	144	3
TAP	37	240	6
TAP	37	288	6
TAP	38	0	7
TAP	38	72	3
TAP	38	144	7
TAP	38	240	3
TAP	38	240	7
TAP	38	288	2
TAP	38	288	6
TAP	38	336	1
TAP	38	336	5
STR	39	0	0
SCR	39	0	0	96	48	3
TAP	39	0	4
STR	39	72	0
SCL	39	72	0	96	48	5
TAP	39	144	0
TAP	39	240	1
TAP	39	288	1
TAP	39	336	4
TAP	40	0	4
TAP	40	72	0
TAP	40	144	4
TAP	40	240	2
TAP	40	288	6
TAP	41	0	2
TAP	41	0	3
TAP	41	96	2
TAP	41	96	7
TAP	41	192	4
TAP	41	192	5
TAP	41	288	0
TAP	41	288	5
TAP	42	0	0
TAP	42	0	1
TAP	42	96	6
TAP	42	96	7
STR	42	192	2
SI_	42	192	2	96	48	7
STR	42	192	3
SI_	42	192	3	96	48	6
TAP	43	48	5
TAP	43	96	4
TAP	43	144	3
TAP	43	192	2
TAP	43	288	0
TAP	43	336	1
TAP	43	336	7
TAP	44	0	0
TAP	44	48	1
TAP	44	48	7
TAP	44	96	2
TAP	44	96	6
TAP	44	144	3
TAP	44	144	5
BRK	44	192	4
STR	44	288	6
SCL	44	288	6	96	48	3
STR	45	0	2
SCR	45	0	2	96	48	5
STR	45	96	6
SCL	45	96	6	96	48	3
STR	45	192	2
SCR	45	192	2	96	96	5
STR	45	288	5
SCR	45	288	5	96	96	0
STR	46	0	0
SCR	46	0	0	96	96	3
STR	46	96	3
SCR	46	96	3	96	96	6
STR	46	192	6
SCR	46	192	6	96	72	1
BRK	46	288	2
TAP	47	48	2
TAP	47	96	3
TAP	47	144	4
TAP	47	192	5
TAP	47	288	7
TAP	47	336	0
TAP	47	336	6
TAP	48	0	7
TAP	48	48	0
TAP	48	48	6
TAP	48	96	1
TAP	48	96	5
TAP	48	144	2
TAP	48	144	4
BRK	48	192	3
TAP	48	288	1
TAP	48	288	5
TAP	48	336	2
TAP	48	336	6
TAP	49	0	3
TAP	49	0	7
TAP	49	96	2
TAP	49	96	6
TAP	49	144	1
TAP	49	144	5
TAP	49	192	0
TAP	49	192	4
TAP	49	288	0
TAP	49	288	3
TAP	50	0	1
TAP	50	0	4
TAP	50	96	2
TAP	50	96	5
STR	50	192	3
SCL	50	192	3	96	48	0
STR	50	192	6
SCL	50	192	6	96	48	3
TAP	51	0	0
TAP	51	48	1
TAP	51	96	7
TAP	51	144	6
TAP	51	192	1
TAP	51	240	2
TAP	51	288	6
TAP	51	336	5
TAP	52	0	3
TAP	52	48	2
TAP	52	96	4
TAP	52	144	5
TAP	52	192	2
TAP	52	240	1
TAP	52	288	5
TAP	52	336	6
STR	53	0	1
SI_	53	0	1	96	48	5
STR	53	96	5
SI_	53	96	5	96	48	1
STR	53	192	1
SI_	53	192	1	96	48	5
STR	53	288	5
SCL	53	288	5	96	96	2
STR	54	0	2
SCL	54	0	2	96	96	7
STR	54	96	7
SCL	54	96	7	96	96	4
STR	54	192	4
SCL	54	192	4	96	48	1
BRK	54	288	6
TAP	55	0	7
TAP	55	48	7
TAP	55	96	5
TAP	55	144	5
TAP	55	192	3
TAP	55	240	3
TAP	55	288	1
TAP	55	336	1
TAP	56	0	0
TAP	56	48	0
TAP	56	96	2
TAP	56	144	2
TAP	56	192	4
TAP	56	240	4
TAP	56	288	6
TAP	56	336	6
STR	57	0	0
SI_	57	0	0	96	48	4
TAP	57	48	0
STR	57	96	7
SI_	57	96	7	96	48	3
TAP	57	144	7
STR	57	192	6
SI_	57	192	6	96	48	2
TAP	57	240	6
STR	57	288	5
SI_	57	288	5	96	48	1
TAP	57	336	5
STR	58	0	4
SI_	58	0	4	96	48	0
TAP	58	48	4
STR	58	96	3
SI_	58	96	3	96	48	7
TAP	58	144	3
STR	58	192	2
SI_	58	192	2	96	48	6
TAP	58	240	2
TAP	58	288	7
TAP	58	336	7
TAP	59	0	1
TAP	59	96	1
TAP	59	192	3
TAP	59	288	3
TAP	60	0	5
TAP	60	96	5
TAP	60	192	7
TAP	60	288	7
TAP	61	0	7
TAP	61	96	3
TAP	61	192	5
STR	61	288	0
SI_	61	288	0	96	48	4
STR	62	0	7
SI_	62	0	7	96	48	3
STR	62	96	1
SI_	62	96	1	96	48	5
STR	62	192	6
SI_	62	192	6	96	48	2
TAP	63	0	1
TAP	63	96	0
TAP	63	96	2
TAP	63	192	5
TAP	63	288	4
TAP	63	288	6
TAP	64	0	0
TAP	64	0	4
TAP	64	96	1
TAP	64	96	5
TAP	64	192	2
TAP	64	192	6
TAP	64	288	3
TAP	64	288	7
TAP	65	0	5
TAP	65	0	7
TAP	65	96	6
TAP	65	192	1
TAP	65	192	3
TAP	65	288	2
TAP	66	0	3
TAP	66	0	6
TAP	66	96	2
TAP	66	96	7
STR	66	192	0
SI_	66	192	0	96	48	5
STR	66	192	1
SI_	66	192	1	96	48	4
TAP	67	48	2
TAP	67	96	3
TAP	67	144	4
STR	67	192	5
SCL	67	192	5	96	48	2
TAP	67	288	5
TAP	67	336	0
TAP	68	0	0
TAP	68	0	4
TAP	68	48	1
TAP	68	48	5
TAP	68	96	2
TAP	68	96	6
TAP	68	144	3
TAP	68	144	7
TAP	68	192	3
TAP	68	192	7
STR	68	288	1
SI_	68	288	1	96	48	4
STR	69	0	0
SI_	69	0	0	96	48	5
STR	69	96	3
SI_	69	96	3	96	48	0
STR	69	192	7
SI_	69	192	7	96	48	3
STR	69	288	2
SI_	69	288	2	96	48	6
STR	70	0	4
SCL	70	0	4	96	48	1
STR	70	96	7
SCR	70	96	7	96	48	2
STR	70	192	4
SCR	70	192	4	96	48	7
TAP	71	48	5
TAP	71	96	4
TAP	71	144	3
STR	71	192	2
SCR	71	192	2	96	48	5
TAP	71	288	2
TAP	71	336	7
TAP	72	0	3
TAP	72	0	7
TAP	72	48	2
TAP	72	48	6
TAP	72	96	1
TAP	72	96	5
TAP	72	144	0
TAP	72	144	4
TAP	72	192	0
TAP	72	192	4
TAP	72	288	2
TAP	72	288	7
TAP	72	336	1
TAP	72	336	6
TAP	73	0	0
TAP	73	0	5
TAP	73	96	4
TAP	73	96	7
TAP	73	144	0
TAP	73	144	5
TAP	73	192	1
TAP	73	192	6
STR	73	288	7
SI_	73	288	7	96	48	3
STR	74	0	3
SI_	74	0	3	96	48	7
STR	74	96	7
SCR	74	96	7	96	48	2
STR	74	192	6
SCL	74	192	6	96	48	3
TAP	75	0	1
TAP	75	96	3
TAP	75	144	4
TAP	75	192	5
TAP	75	240	7
TAP	75	288	6
TAP	75	336	5
STR	76	0	4
SCR	76	0	4	96	72	7
TAP	76	48	3
TAP	76	96	2
TAP	76	144	1
STR	76	192	0
SCR	76	192	0	96	72	3
TAP	76	240	7
TAP	76	288	6
TAP	76	336	5
TAP	77	0	1
TAP	77	96	2
TAP	77	144	3
TAP	77	192	2
TAP	77	240	5
TAP	77	288	4
TAP	77	336	5
TAP	78	0	1
TAP	78	48	0
TAP	78	96	7
TAP	78	144	6
TAP	78	192	4
TAP	78	240	5
TAP	78	288	6
TAP	78	336	7
TAP	79	0	6
TAP	79	96	4
TAP	79	144	3
TAP	79	192	2
TAP	79	240	0
TAP	79	288	1
TAP	79	336	2
STR	80	0	3
SCL	80	0	3	96	72	0
TAP	80	48	4
TAP	80	96	5
TAP	80	144	6
STR	80	192	7
SCL	80	192	7	96	48	4
TAP	80	240	0
TAP	80	288	1
TAP	80	336	2
TAP	81	0	6
TAP	81	96	5
TAP	81	144	4
TAP	81	192	6
TAP	81	240	2
TAP	81	288	3
TAP	81	336	1
TAP	82	0	1
TAP	82	48	7
TAP	82	96	1
TAP	82	144	7
STR	82	192	0
SI_	82	192	0	96	48	4
STR	82	240	6
SI_	82	240	6	96	48	2
BRK	82	288	0
BRK	82	336	6

T_REC_TAP	475
T_REC_BRK	7
T_REC_XTP	0
T_REC_HLD	12
T_REC_XHO	0
T_REC_STR	78
T_REC_BST	0
T_REC_XST	0
T_REC_TTP	0
T_REC_THO	0
T_REC_SLD	78
T_REC_ALL	650
T_NUM_TAP	553
T_NUM_BRK	7
T_NUM_HLD	12
T_NUM_SLD	78
T_NUM_ALL	650
T_JUDGE_TAP	560
T_JUDGE_HLD	24
T_JUDGE_SLD	78
T_JUDGE_ALL	662
TTM_EACHPAIRS	64
TTM_SCR_TAP	276500
TTM_SCR_BRK	18200
TTM_SCR_HLD	12000
TTM_SCR_SLD	117000
TTM_SCR_ALL	423700
TTM_SCR_S	410350
TTM_SCR_SS	423000
TTM_RAT_ACV	10016

