VERSION	0.00.00	1.03.00
FES_MODE	0
BPM_DEF	145.000	145.000	145.000	145.000
MET_DEF	4	4
RESOLUTION	384
CLK_DEF	384
COMPATIBLE_CODE	MA2

BPM	0	0	145.000
MET	0	0	4	4

TAP	1	0	3
TAP	1	96	3
TAP	1	192	4
TAP	1	288	4
TAP	2	0	3
TAP	2	96	3
TAP	2	192	4
TAP	2	288	4
TAP	3	0	2
TAP	3	96	3
TAP	3	192	5
TAP	3	288	4
TAP	4	0	2
TAP	4	96	3
TAP	4	192	4
TAP	4	192	5
TAP	4	288	2
TAP	4	288	3
TAP	5	0	0
TAP	5	48	0
TAP	5	96	7
TAP	5	144	7
TAP	5	192	0
TAP	5	240	0
TAP	5	288	7
TAP	5	336	7
TAP	6	0	1
TAP	6	48	1
TAP	6	96	6
TAP	6	144	6
TAP	6	192	0
TAP	6	192	7
TAP	6	288	1
TAP	6	288	6
TAP	7	0	1
TAP	7	48	1
TAP	7	96	0
TAP	7	144	0
TAP	7	192	6
TAP	7	240	6
TAP	7	288	7
TAP	7	336	7
TAP	8	0	2
TAP	8	0	3
TAP	8	96	4
TAP	8	96	5
HLD	8	192	0	96
HLD	8	192	7	96
HLD	9	0	1	96
TAP	9	96	2
HLD	9	144	3	96
TAP	9	240	4
HLD	10	0	6	96
TAP	10	96	5
HLD	10	144	4	96
TAP	10	240	3
HLD	11	0	7	96
TAP	11	96	0
HLD	11	144	1	96
TAP	11	240	2
HLD	12	0	0	96
TAP	12	96	7
HLD	12	144	6	96
TAP	12	240	5
HLD	13	0	2	96
TAP	13	96	3
HLD	13	144	1	96
TAP	13	240	0
TAP	13	288	0
HLD	14	0	5	96
TAP	14	96	4
HLD	14	144	6	96
TAP	14	240	7
TAP	14	288	7
HLD	15	0	0	96
TAP	15	96	5
HLD	15	144	2	96
TAP	15	240	3
TAP	15	288	3
HLD	16	0	7	96
TAP	16	96	2
HLD	16	144	5	96
TAP	16	240	4
BRK	16	288	4
TAP	17	0	7
TAP	17	72	6
HLD	17	144	5	144
TAP	17	288	4
TAP	18	0	0
TAP	18	72	1
HLD	18	144	2	144
TAP	18	288	3
TAP	19	0	5
TAP	19	72	4
HLD	19	144	3	144
TAP	19	288	2
TAP	20	0	2
TAP	20	72	3
HLD	20	144	4	144
TAP	20	240	5
TAP	20	288	5
TAP	21	0	3
TAP	21	72	2
HLD	21	144	1	144
TAP	21	288	0
TAP	22	0	4
TAP	22	72	5
HLD	22	144	6	144
TAP	22	288	7
TAP	23	0	1
TAP	23	72	0
HLD	23	144	7	144
TAP	23	288	6
TAP	24	0	6
TAP	24	72	7
HLD	24	144	0	144
TAP	24	240	1
TAP	24	288	1
HLD	25	0	2	384
STR	25	0	3
SI_	25	0	3	96	288	7
TAP	27	0	1
TAP	27	96	6
HLD	27	144	6	96
TAP	27	240	0
TAP	27	336	5
TAP	28	0	6
TAP	28	96	1
HLD	28	144	1	96
TAP	28	240	2
TAP	28	336	6
TAP	29	0	2
TAP	29	96	4
HLD	29	144	4	96
TAP	29	240	5
TAP	29	336	3
TAP	30	0	4
TAP	30	96	1
HLD	30	144	1	96
TAP	30	240	3
TAP	30	336	6
TAP	31	0	4
TAP	31	96	7
HLD	31	144	0	96
TAP	31	240	2
TAP	31	336	4
TAP	32	0	3
TAP	32	96	6
HLD	32	144	6	96
BRK	32	240	7
TAP	33	0	2
TAP	33	72	0
STR	33	144	6
SI_	33	144	6	96	48	2
TAP	33	240	0
TAP	33	288	0
TAP	34	0	0
TAP	34	72	2
STR	34	144	4
SI_	34	144	4	96	48	0
TAP	34	240	2
TAP	34	288	2
TAP	35	0	6
TAP	35	72	0
STR	35	144	2
SI_	35	144	2	96	48	6
TAP	35	240	4
TAP	35	288	4
TAP	36	0	4
TAP	36	72	6
STR	36	144	0
SI_	36	144	0	96	48	4
STR	36	144	6
SI_	36	144	6	96	48	3
TAP	37	0	0
TAP	37	72	4
HLD	37	144	2	144
TAP	37	240	6
TAP	37	288	6
TAP	38	0	7
TAP	38	72	3
HLD	38	144	6	96
TAP	38	240	1
TAP	38	288	1
TAP	38	336	7
TAP	39	0	7
TAP	39	72	0
TAP	39	144	4
TAP	39	240	3
TAP	39	288	4
TAP	40	0	5
TAP	40	72	0
TAP	40	144	6
TAP	40	240	5
TAP	40	288	3
TAP	40	288	4
TAP	41	0	5
TAP	41	0	6
TAP	41	192	0
TAP	41	192	7
TAP	42	0	1
TAP	42	0	2
STR	42	192	3
SI_	42	192	3	96	48	7
TAP	43	0	0
TAP	43	48	7
TAP	43	96	0
TAP	43	144	7
TAP	43	192	1
TAP	43	240	0
TAP	43	288	1
TAP	43	336	6
TAP	44	0	7
TAP	44	48	6
TAP	44	96	0
TAP	44	144	7
BRK	44	192	0
STR	44	288	1
SI_	44	288	1	96	48	5
TAP	44	336	1
STR	45	96	6
SI_	45	96	6	96	48	2
TAP	45	144	6
TAP	45	288	3
TAP	45	288	7
TAP	46	0	2
TAP	46	0	6
TAP	46	96	1
TAP	46	96	5
STR	46	192	0
SI_	46	192	0	96	48	3
STR	46	192	4
SI_	46	192	4	96	48	7
TAP	47	0	3
TAP	47	48	4
TAP	47	96	3
TAP	47	144	4
TAP	47	192	2
TAP	47	240	3
TAP	47	288	2
TAP	47	336	5
TAP	48	0	4
TAP	48	48	5
TAP	48	96	3
TAP	48	144	4
BRK	48	192	3
STR	48	288	4
SI_	48	288	4	96	72	7
STR	49	96	0
SI_	49	96	0	96	72	5
TAP	49	288	6
TAP	50	0	4
TAP	50	96	5
STR	50	192	6
SI_	50	192	6	96	48	3
STR	50	192	7
SI_	50	192	7	96	48	2
TAP	51	0	4
TAP	51	0	6
TAP	51	96	1
TAP	51	96	5
TAP	51	192	2
TAP	51	240	3
TAP	51	288	2
TAP	52	0	1
TAP	52	0	3
TAP	52	96	2
TAP	52	96	6
TAP	52	192	5
TAP	52	240	4
TAP	52	288	5
TAP	53	0	4
TAP	53	0	6
TAP	53	96	1
TAP	53	96	5
TAP	53	192	2
TAP	53	240	3
TAP	53	288	2
TAP	54	0	1
TAP	54	0	3
TAP	54	96	2
TAP	54	96	6
TAP	54	192	5
TAP	54	240	4
TAP	54	288	5
TAP	54	336	6
TAP	55	0	0
TAP	55	0	5
TAP	55	96	4
TAP	55	96	6
TAP	55	192	2
TAP	55	240	3
TAP	55	288	2
TAP	55	336	1
TAP	56	0	2
TAP	56	0	7
TAP	56	96	1
TAP	56	96	3
TAP	56	192	5
TAP	56	240	4
TAP	56	288	5
TAP	56	336	6
TAP	57	0	0
TAP	57	0	5
TAP	57	96	1
TAP	57	96	7
TAP	57	192	2
TAP	57	240	3
TAP	57	288	4
TAP	57	336	3
TAP	58	0	2
TAP	58	0	7
TAP	58	96	0
TAP	58	96	6
TAP	58	192	5
TAP	58	240	4
TAP	58	288	3
TAP	58	336	4
TAP	59	0	2
TAP	59	192	1
TAP	60	0	0
HLD	60	96	7	96
TAP	60	192	6
HLD	61	0	1	192
HLD	61	192	0	192
HLD	62	0	4	96
HLD	62	96	5	96
HLD	62	192	2	96
HLD	62	288	3	96
TAP	63	0	2
TAP	63	192	3
TAP	64	0	4
HLD	64	96	5	96
TAP	64	192	6
HLD	65	0	0	96
HLD	65	96	1	96
HLD	65	192	2	96
TAP	65	288	3
TAP	66	0	3
TAP	66	0	7
TAP	66	96	2
TAP	66	96	6
TAP	66	192	1
TAP	66	192	5
BRK	66	288	0
BRK	66	288	4
TAP	67	0	1
TAP	67	48	0
TAP	67	96	1
TAP	67	144	0
TAP	67	192	2
TAP	67	240	1
TAP	67	288	2
TAP	67	336	7
TAP	68	0	0
TAP	68	48	7
TAP	68	96	1
TAP	68	144	0
BRK	68	192	1
STR	68	288	6
SI_	68	288	6	96	48	2
TAP	68	336	6
STR	69	96	4
SI_	69	96	4	96	48	0
TAP	69	144	4
TAP	69	288	6
TAP	69	288	7
TAP	70	0	4
TAP	70	0	5
TAP	70	96	2
TAP	70	96	3
STR	70	192	0
SI_	70	192	0	96	48	5
STR	70	192	1
SI_	70	192	1	96	48	4
TAP	71	0	3
TAP	71	48	4
TAP	71	96	2
TAP	71	144	5
TAP	71	192	1
TAP	71	240	6
STR	71	288	0
SI_	71	288	0	96	48	4
STR	72	0	7
SI_	72	0	7	96	48	3
STR	72	96	0
SCR	72	96	0	96	48	3
STR	72	288	4
SI_	72	288	4	96	72	7
STR	73	96	0
SI_	73	96	0	96	72	5
TAP	73	288	6
TAP	74	0	4
TAP	74	96	5
STR	74	192	6
SI_	74	192	6	96	48	3
STR	74	192	7
SI_	74	192	7	96	48	2
HLD	75	0	0	96
TAP	75	96	1
STR	75	144	2
SI_	75	144	2	96	48	5
STR	75	240	7
SI_	75	240	7	96	48	4
HLD	76	0	7	96
TAP	76	96	6
STR	76	144	5
SI_	76	144	5	96	48	2
STR	76	240	0
SI_	76	240	0	96	48	3
HLD	77	0	4	96
TAP	77	96	5
STR	77	144	6
SI_	77	144	6	96	48	1
STR	77	240	3
SI_	77	240	3	96	48	0
HLD	78	0	3	96
TAP	78	96	2
STR	78	144	1
SI_	78	144	1	96	48	6
STR	78	240	4
SI_	78	240	4	96	48	7
HLD	79	0	0	96
TAP	79	96	6
TAP	79	144	7
TAP	79	240	4
TAP	79	288	3
TAP	79	336	2
HLD	80	0	7	96
TAP	80	96	1
TAP	80	144	0
TAP	80	240	3
TAP	80	288	4
TAP	80	336	5
HLD	81	0	1	96
TAP	81	96	3
TAP	81	144	2
TAP	81	240	5
TAP	81	288	4
TAP	81	336	3
TAP	82	0	0
TAP	82	0	2
TAP	82	96	5
TAP	82	96	7
TAP	82	144	5
TAP	82	144	7
TAP	82	240	0
TAP	82	240	7
TAP	82	288	0
TAP	82	288	7
BRK	82	336	0
BRK	82	336	7

T_REC_TAP	322
T_REC_BRK	9
T_REC_XTP	0
T_REC_HLD	53
T_REC_XHO	0
T_REC_STR	34
T_REC_BST	0
T_REC_XST	0
T_REC_TTP	0
T_REC_THO	0
T_REC_SLD	34
T_REC_ALL	452
T_NUM_TAP	356
T_NUM_BRK	9
T_NUM_HLD	53
T_NUM_SLD	34
T_NUM_ALL	452
T_JUDGE_TAP	365
T_JUDGE_HLD	125
T_JUDGE_SLD	34
T_JUDGE_ALL	524
TTM_EACHPAIRS	49
TTM_SCR_TAP	178000
TTM_SCR_BRK	23400
TTM_SCR_HLD	53000
TTM_SCR_SLD	51000
TTM_SCR_ALL	305400
TTM_SCR_S	295400
TTM_SCR_SS	304500
TTM_RAT_ACV	10029

