VERSION	0.00.00	1.03.00
FES_MODE	0
BPM_DEF	145.000	145.000	145.000	145.000
MET_DEF	4	4
RESOLUTION	384
CLK_DEF	384
COMPATIBLE_CODE	MA2

BPM	0	0	145.000
MET	0	0	4	4

TAP	1	0	5
TAP	1	192	6
TAP	2	0	5
TAP	2	96	6
TAP	2	192	7
TAP	3	0	0
TAP	3	192	1
TAP	4	0	2
TAP	4	192	3
TAP	4	192	4
TAP	5	0	2
TAP	5	192	2
TAP	6	0	3
TAP	6	96	2
TAP	6	192	1
TAP	7	0	0
TAP	7	192	7
TAP	8	0	6
TAP	8	96	6
TAP	8	192	6
TAP	8	192	7
TAP	9	0	4
TAP	9	96	4
TAP	9	192	5
TAP	10	0	6
TAP	10	96	5
TAP	10	192	4
TAP	11	0	3
TAP	11	192	2
HLD	12	0	1	192
TAP	12	96	0
TAP	12	192	0
TAP	13	0	0
TAP	13	96	0
TAP	13	192	7
TAP	14	0	7
TAP	14	96	6
TAP	14	192	7
TAP	15	0	5
TAP	15	96	6
TAP	15	192	7
TAP	16	0	0
TAP	16	96	0
TAP	16	192	0
TAP	16	192	1
STR	17	0	6
SI_	17	0	6	96	96	1
STR	18	0	0
SI_	18	0	0	96	96	3
STR	19	0	2
SI_	19	0	2	96	96	5
STR	20	0	7
SI_	20	0	7	96	96	4
STR	21	0	3
SCL	21	0	3	96	96	0
STR	22	0	7
SCL	22	0	7	96	96	4
STR	23	0	3
SI_	23	0	3	96	96	0
STR	24	0	1
SI_	24	0	1	96	96	6
HLD	25	0	7	576
TAP	25	96	0
TAP	25	192	1
TAP	25	288	0
TAP	26	0	1
TAP	26	96	1
TAP	26	192	0
HLD	27	0	3	576
TAP	27	96	4
TAP	27	192	5
TAP	27	288	4
TAP	28	0	5
TAP	28	96	5
TAP	28	192	4
HLD	29	0	6	576
TAP	29	96	5
TAP	29	192	4
TAP	29	288	3
TAP	30	0	3
TAP	30	96	4
TAP	30	192	5
TAP	31	0	2
TAP	31	96	7
TAP	31	192	7
TAP	31	288	6
TAP	32	0	6
TAP	32	96	5
TAP	32	192	4
TAP	32	288	3
TAP	33	0	3
TAP	33	96	2
TAP	33	192	1
TAP	34	0	0
TAP	34	96	7
TAP	34	192	6
TAP	35	0	5
TAP	35	96	4
TAP	35	192	3
TAP	36	0	2
TAP	36	96	2
TAP	36	192	2
TAP	37	0	3
TAP	37	96	4
TAP	37	192	5
TAP	38	0	6
TAP	38	96	7
TAP	38	192	6
TAP	39	0	7
TAP	39	96	0
TAP	39	192	0
TAP	39	192	7
TAP	40	0	1
TAP	40	96	1
TAP	40	192	1
TAP	40	288	0
TAP	41	0	0
TAP	41	96	0
TAP	41	96	1
TAP	41	192	7
TAP	41	288	6
TAP	41	288	7
TAP	42	0	6
TAP	42	192	7
BRK	42	288	0
BRK	42	288	7
TAP	43	0	7
TAP	43	96	6
TAP	43	192	7
TAP	43	288	6
TAP	44	0	5
TAP	44	96	6
TAP	44	192	5
TAP	44	288	6
TAP	45	0	7
TAP	45	192	0
TAP	46	0	1
TAP	46	96	2
TAP	46	192	3
TAP	46	288	3
BRK	47	0	3
BRK	47	0	4
TAP	47	96	3
TAP	47	192	2
TAP	47	288	2
TAP	48	0	1
TAP	48	96	0
TAP	48	192	1
HLD	49	0	1	96
TAP	49	96	0
HLD	49	192	6	96
TAP	49	288	7
TAP	50	0	0
STR	50	96	0
SI_	50	96	0	96	96	3
STR	50	96	7
SI_	50	96	7	96	96	4
TAP	51	0	5
TAP	51	96	5
TAP	51	192	4
TAP	52	0	3
TAP	52	96	3
TAP	52	192	2
TAP	53	0	0
TAP	53	96	0
TAP	53	192	1
TAP	53	288	1
TAP	54	0	7
TAP	54	96	7
TAP	54	192	6
TAP	54	288	6
HLD	55	0	4	192
HLD	55	192	5	192
HLD	56	0	6	192
HLD	57	0	7	192
HLD	57	192	0	192
HLD	58	0	1	192
TAP	59	0	2
TAP	59	192	2
TAP	60	0	3
TAP	60	192	3
TAP	61	0	4
TAP	61	192	4
TAP	62	0	5
TAP	62	96	5
TAP	62	192	5
TAP	62	192	6
TAP	63	0	5
TAP	63	192	5
TAP	64	0	4
TAP	64	192	4
TAP	65	0	3
TAP	65	192	2
TAP	66	0	1
TAP	66	192	3
TAP	66	288	3
BRK	67	0	3
TAP	67	96	3
TAP	67	192	4
TAP	67	288	4
TAP	68	0	4
TAP	68	96	5
TAP	68	192	5
TAP	69	0	5
TAP	69	96	5
TAP	69	192	5
TAP	70	0	6
TAP	70	96	6
TAP	70	192	6
TAP	70	240	6
TAP	70	288	6
BRK	71	0	7
TAP	71	96	7
TAP	71	192	7
TAP	71	288	7
TAP	72	0	0
TAP	72	48	7
TAP	72	96	0
TAP	72	144	7
TAP	72	192	0
TAP	73	0	1
TAP	73	96	2
TAP	73	192	3
TAP	73	288	4
TAP	74	0	5
TAP	74	0	6
TAP	74	96	6
TAP	74	192	6
TAP	74	192	7
BRK	74	288	6
BRK	74	288	7
TAP	75	0	7
TAP	75	96	0
TAP	75	192	7
TAP	75	288	0
TAP	76	0	0
TAP	76	96	1
TAP	76	192	0
TAP	76	288	1
TAP	77	0	1
TAP	77	96	2
TAP	77	192	3
TAP	77	288	4
TAP	78	0	4
TAP	78	96	3
TAP	78	192	3
TAP	78	240	3
TAP	78	288	3
TAP	79	0	4
TAP	79	96	5
TAP	79	192	6
TAP	79	288	7
TAP	80	0	7
TAP	80	96	7
TAP	80	192	0
TAP	80	288	0
TAP	81	0	1
TAP	81	96	1
TAP	81	192	2
TAP	81	288	2
TAP	82	0	3
TAP	82	96	3
TAP	82	96	4
TAP	82	192	4
TAP	82	240	4
TAP	82	288	4
TAP	82	336	4

T_REC_TAP	227
T_REC_BRK	8
T_REC_XTP	0
T_REC_HLD	12
T_REC_XHO	0
T_REC_STR	10
T_REC_BST	0
T_REC_XST	0
T_REC_TTP	0
T_REC_THO	0
T_REC_SLD	10
T_REC_ALL	267
T_NUM_TAP	237
T_NUM_BRK	8
T_NUM_HLD	12
T_NUM_SLD	10
T_NUM_ALL	267
T_JUDGE_TAP	245
T_JUDGE_HLD	68
T_JUDGE_SLD	10
T_JUDGE_ALL	323
TTM_EACHPAIRS	14
TTM_SCR_TAP	118500
TTM_SCR_BRK	20800
TTM_SCR_HLD	12000
TTM_SCR_SLD	15000
TTM_SCR_ALL	166300
TTM_SCR_S	160550
TTM_SCR_SS	165500
TTM_RAT_ACV	10048

