VERSION	0.00.00	1.03.00
FES_MODE	0
BPM_DEF	145.000	145.000	145.000	145.000
MET_DEF	4	4
RESOLUTION	384
CLK_DEF	384
COMPATIBLE_CODE	MA2

BPM	0	0	145.000
MET	0	0	4	4

TAP	5	0	0
TAP	6	0	0
TAP	7	0	1
TAP	8	0	1
STR	9	0	1
SI_	9	0	1	96	288	6
STR	11	0	5
SI_	11	0	5	96	288	2
TAP	13	0	1
TAP	13	192	1
TAP	14	0	1
TAP	14	192	1
TAP	15	0	0
TAP	15	192	0
TAP	16	0	0
TAP	16	192	0
HLD	17	0	7	192
TAP	18	0	7
TAP	18	192	7
HLD	19	0	6	192
TAP	20	0	6
TAP	20	192	6
HLD	21	0	5	192
TAP	22	0	5
TAP	22	192	5
HLD	23	0	4	192
TAP	24	0	4
TAP	24	192	4
STR	25	0	3
SI_	25	0	3	96	288	0
STR	27	0	7
SI_	27	0	7	96	288	4
TAP	29	0	3
TAP	29	192	3
TAP	30	0	3
TAP	30	192	3
TAP	31	0	2
TAP	31	192	2
TAP	32	0	2
TAP	32	192	2
HLD	33	0	1	192
TAP	34	0	1
TAP	34	192	1
HLD	35	0	0	192
TAP	36	0	0
TAP	36	192	0
HLD	37	0	7	192
TAP	38	0	7
TAP	38	192	7
HLD	39	0	6	192
TAP	40	0	6
TAP	40	192	6
STR	41	0	5
SI_	41	0	5	96	288	1
TAP	43	0	0
TAP	43	192	0
TAP	44	0	0
TAP	44	0	7
TAP	44	192	0
TAP	44	192	7
TAP	45	0	1
TAP	45	192	1
TAP	46	0	2
TAP	46	96	2
BRK	46	192	2
TAP	47	0	3
TAP	47	192	3
TAP	48	0	3
TAP	48	0	4
TAP	48	192	3
TAP	48	192	4
TAP	49	0	5
TAP	49	192	5
TAP	50	0	6
TAP	50	96	6
BRK	50	192	6
STR	51	0	7
SI_	51	0	7	96	288	4
STR	53	0	3
SI_	53	0	3	96	288	0
STR	55	0	1
SI_	55	0	1	96	288	6
STR	57	0	5
SI_	57	0	5	96	288	2
HLD	59	0	3	384
HLD	61	0	4	384
HLD	63	0	5	384
HLD	65	0	6	384
TAP	67	0	7
TAP	67	96	7
TAP	67	192	7
TAP	68	0	0
TAP	68	0	7
TAP	68	96	0
TAP	68	96	7
TAP	68	192	0
TAP	68	192	7
TAP	69	0	6
TAP	69	192	6
TAP	70	0	5
TAP	70	96	5
BRK	70	192	5
TAP	71	0	4
TAP	71	96	4
TAP	71	192	4
TAP	72	0	3
TAP	72	0	4
TAP	72	96	3
TAP	72	96	4
TAP	72	192	3
TAP	72	192	4
TAP	73	0	2
TAP	73	192	2
TAP	74	0	1
TAP	74	96	1
BRK	74	192	1
STR	75	0	1
SI_	75	0	1	96	288	5
STR	77	0	6
SI_	77	0	6	96	288	2
TAP	79	0	1
TAP	79	96	1
TAP	79	192	1
TAP	80	0	2
TAP	80	96	2
TAP	80	192	2
TAP	81	0	3
TAP	81	96	3
TAP	81	192	3
TAP	82	0	4
TAP	82	96	4
TAP	82	192	4
TAP	82	288	3
TAP	82	288	4

T_REC_TAP	96
T_REC_BRK	4
T_REC_XTP	0
T_REC_HLD	12
T_REC_XHO	0
T_REC_STR	11
T_REC_BST	0
T_REC_XST	0
T_REC_TTP	0
T_REC_THO	0
T_REC_SLD	11
T_REC_ALL	134
T_NUM_TAP	107
T_NUM_BRK	4
T_NUM_HLD	12
T_NUM_SLD	11
T_NUM_ALL	134
T_JUDGE_TAP	111
T_JUDGE_HLD	64
T_JUDGE_SLD	11
T_JUDGE_ALL	186
TTM_EACHPAIRS	11
TTM_SCR_TAP	53500
TTM_SCR_BRK	10400
TTM_SCR_HLD	12000
TTM_SCR_SLD	16500
TTM_SCR_ALL	92400
TTM_SCR_S	89250
TTM_SCR_SS	92000
TTM_RAT_ACV	10043

