VERSION	0.00.00	1.03.00
FES_MODE	0
BPM_DEF	120.000	120.000	120.000	120.000
MET_DEF	4	4
RESOLUTION	384
CLK_DEF	384
COMPATIBLE_CODE	MA2

BPM	0	0	120.000
MET	0	0	4	4

TAP	2	0	0
TAP	2	0	1
TAP	2	48	0
TAP	2	48	1
TAP	2	192	6
TAP	2	192	7
TAP	2	240	6
TAP	2	240	7
TAP	3	0	2
TAP	3	0	3
TAP	3	48	2
TAP	3	48	3
TAP	3	192	4
TAP	3	192	5
TAP	3	240	4
TAP	3	240	5
TAP	4	0	1
TAP	4	0	7
TAP	4	48	1
TAP	4	48	7
TAP	4	192	0
TAP	4	192	6
TAP	4	240	0
TAP	4	240	6
TAP	5	0	2
TAP	5	0	4
TAP	5	48	2
TAP	5	48	4
TAP	5	192	3
TAP	5	192	5
TAP	5	240	3
TAP	5	240	5
TAP	6	0	0
TAP	6	0	2
TAP	6	48	0
TAP	6	48	2
TAP	6	192	1
TAP	6	192	3
TAP	6	240	1
TAP	6	240	3
TAP	7	0	5
TAP	7	0	7
TAP	7	48	5
TAP	7	48	7
TAP	7	192	4
TAP	7	192	6
TAP	7	240	4
TAP	7	240	6
TAP	8	0	0
TAP	8	0	7
TAP	8	48	1
TAP	8	48	6
TAP	8	192	3
TAP	8	192	4
TAP	8	240	2
TAP	8	240	5
TAP	9	0	6
TAP	9	0	7
TAP	9	96	4
TAP	9	96	5
TAP	9	192	2
TAP	9	192	3
TAP	9	288	0
TAP	9	288	1
STR	10	0	6
SI_	10	0	6	96	48	3
TAP	10	0	7
STR	10	192	4
SI_	10	192	4	96	48	1
TAP	10	192	5
STR	11	0	2
SI_	11	0	2	96	48	7
TAP	11	0	3
STR	11	192	0
SI_	11	192	0	96	48	5
TAP	11	192	1
STR	12	0	6
SI_	12	0	6	96	48	3
TAP	12	0	7
STR	12	192	4
SI_	12	192	4	96	48	1
TAP	12	192	5
STR	13	0	2
SI_	13	0	2	96	48	7
TAP	13	0	3
STR	13	192	0
SI_	13	192	0	96	48	5
TAP	13	192	1
STR	14	0	2
SCR	14	0	2	96	48	5
TAP	14	0	3
TAP	14	48	2
TAP	14	48	3
TAP	14	192	4
STR	14	192	5
SCL	14	192	5	96	48	2
TAP	14	240	4
TAP	14	240	5
STR	15	0	2
SCR	15	0	2	96	48	5
TAP	15	0	3
TAP	15	48	1
TAP	15	48	2
TAP	15	192	4
STR	15	192	5
SCL	15	192	5	96	48	2
TAP	15	240	5
TAP	15	240	6
STR	16	0	2
SCR	16	0	2	96	48	5
TAP	16	0	3
TAP	16	48	2
TAP	16	48	3
TAP	16	192	5
STR	16	192	6
SCL	16	192	6	96	48	3
TAP	16	240	5
TAP	16	240	6
STR	17	0	1
SCR	17	0	1	96	48	4
TAP	17	0	2
TAP	17	48	0
TAP	17	48	1
TAP	17	192	4
STR	17	192	5
SCL	17	192	5	96	48	2
TAP	17	240	5
TAP	17	240	6
TAP	18	0	0
STR	18	0	1
SI_	18	0	1	96	48	4
TAP	18	48	1
TAP	18	48	2
STR	18	192	6
SI_	18	192	6	96	48	3
TAP	18	192	7
TAP	18	240	5
TAP	18	240	6
STR	19	0	0
SI_	19	0	0	96	48	4
TAP	19	0	4
TAP	19	96	0
STR	19	96	7
SI_	19	96	7	96	48	3
TAP	19	192	0
TAP	19	192	7
STR	20	0	6
SI_	20	0	6	96	48	3
TAP	20	0	7
TAP	20	48	5
TAP	20	48	6
TAP	20	192	0
STR	20	192	1
SI_	20	192	1	96	48	4
TAP	20	240	1
TAP	20	240	2
TAP	21	0	3
STR	21	0	7
SI_	21	0	7	96	48	3
STR	21	96	0
SI_	21	96	0	96	48	4
TAP	21	96	7
TAP	21	192	0
STR	21	192	7
SCR	21	192	7	96	48	2
HLD	22	0	4	96
HLD	22	0	5	96
HLD	22	192	2	96
HLD	22	192	3	96
HLD	23	0	3	96
HLD	23	0	5	96
HLD	23	192	2	96
HLD	23	192	4	96
HLD	24	0	5	96
HLD	24	0	6	96
HLD	24	192	1	96
HLD	24	192	2	96
TAP	25	0	3
TAP	25	0	4
TAP	25	96	5
TAP	25	96	6
STR	25	192	0
SCR	25	192	0	96	48	3
STR	25	192	7
SCL	25	192	7	96	48	4
TAP	26	0	2
TAP	26	0	3
TAP	26	96	4
TAP	26	96	5
TAP	26	192	0
STR	26	192	7
SCL	26	192	7	96	96	4
STR	26	288	4
SCL	26	288	4	96	96	1
TAP	26	288	7
TAP	27	192	4
TAP	27	192	5
TAP	27	240	3
TAP	27	240	4
TAP	27	288	2
TAP	27	288	3
TAP	27	336	3
TAP	27	336	4
TAP	28	0	4
TAP	28	0	5
TAP	28	192	4
TAP	28	192	5
TAP	28	288	3
TAP	28	288	4
TAP	29	0	2
TAP	29	0	3
STR	29	96	1
SCR	29	96	1	96	48	4
TAP	29	96	2
TAP	29	192	1
STR	29	192	5
SCL	29	192	5	96	48	2
TAP	30	0	4
TAP	30	0	5
TAP	30	96	2
TAP	30	96	3
STR	30	192	0
SCR	30	192	0	96	96	3
TAP	30	192	7
TAP	30	288	0
STR	30	288	3
SCR	30	288	3	96	96	6
TAP	31	192	2
TAP	31	192	3
TAP	31	240	3
TAP	31	240	4
TAP	31	288	4
TAP	31	288	5
TAP	31	336	3
TAP	31	336	4
TAP	32	0	2
TAP	32	0	3
TAP	32	192	2
TAP	32	192	3
TAP	32	288	3
TAP	32	288	4
TAP	33	0	4
TAP	33	0	5
TAP	33	96	5
TAP	33	96	6
STR	33	192	6
SI_	33	192	6	96	96	3
TAP	33	192	7
TAP	33	288	6
STR	33	288	7
SI_	33	288	7	96	96	2
TAP	35	0	1
TAP	35	0	3
TAP	35	96	2
TAP	35	96	3
TAP	35	192	4
TAP	35	192	5
TAP	35	288	3
TAP	35	288	4
TAP	36	0	4
TAP	36	0	6
TAP	36	96	4
TAP	36	96	5
TAP	36	192	2
TAP	36	192	3
TAP	36	288	3
TAP	36	288	4
TAP	37	0	1
TAP	37	0	3
TAP	37	96	2
TAP	37	96	3
TAP	37	192	4
TAP	37	192	5
TAP	37	288	3
TAP	37	288	4
TAP	38	0	2
STR	38	0	3
SCR	38	0	3	96	48	6
TAP	38	192	0
STR	38	192	1
SCR	38	192	1	96	48	4
TAP	39	0	6
STR	39	0	7
SCR	39	0	7	96	48	2
TAP	39	192	4
STR	39	192	5
SCR	39	192	5	96	48	0
TAP	40	0	2
TAP	40	0	3
STR	40	192	6
SCL	40	192	6	96	48	3
TAP	40	192	7
STR	41	0	0
SCL	41	0	0	96	48	5
TAP	41	0	1
TAP	41	192	2
TAP	41	192	3
BRK	43	0	4
STR	43	0	7
SI_	43	0	7	96	48	4
STR	43	192	4
SCL	43	192	4	96	96	1
TAP	43	192	5
STR	43	288	1
SCL	43	288	1	96	96	6
TAP	43	288	4
STR	44	192	2
SCR	44	192	2	96	48	5
TAP	44	192	3
TAP	44	288	2
TAP	44	288	6
TAP	45	0	4
STR	45	0	5
SCL	45	0	5	96	48	2
TAP	45	96	1
TAP	45	96	5
TAP	45	192	0
STR	45	192	1
SI_	45	192	1	96	48	5
TAP	45	288	1
TAP	45	288	6
STR	46	0	6
SI_	46	0	6	96	48	2
TAP	46	0	7
TAP	46	96	1
TAP	46	96	6
STR	46	192	0
SI_	46	192	0	96	48	3
TAP	46	192	1
STR	46	288	0
SI_	46	288	0	96	48	5
TAP	46	288	7
STR	47	0	0
SI_	47	0	0	96	48	4
TAP	47	0	1
TAP	47	96	0
TAP	47	96	7
TAP	47	192	2
STR	47	192	3
SCR	47	192	3	96	96	6
TAP	47	288	3
STR	47	288	6
SCR	47	288	6	96	96	1
TAP	48	192	0
STR	48	192	1
SCL	48	192	1	96	48	6
TAP	48	288	1
TAP	48	288	5
STR	49	0	6
SCR	49	0	6	96	48	1
TAP	49	0	7
TAP	49	96	2
TAP	49	96	6
TAP	49	192	4
STR	49	192	5
SI_	49	192	5	96	48	1
TAP	49	288	2
TAP	49	288	5
STR	50	0	2
SI_	50	0	2	96	48	6
TAP	50	0	3
TAP	50	96	2
TAP	50	96	5
TAP	50	192	6
STR	50	192	7
SI_	50	192	7	96	48	4
TAP	50	288	0
STR	50	288	7
SI_	50	288	7	96	48	2
TAP	51	0	6
STR	51	0	7
SI_	51	0	7	96	48	3
TAP	51	96	0
TAP	51	96	7
STR	51	192	1
SCR	51	192	1	96	48	4
STR	51	192	4
SCR	51	192	4	96	48	7
TAP	51	288	1
STR	51	288	4
SI_	51	288	4	96	48	0
STR	52	96	1
SCR	52	96	1	96	48	4
STR	52	96	7
SCL	52	96	7	96	48	4
STR	53	0	0
SCR	53	0	0	96	48	3
STR	53	0	3
SCR	53	0	3	96	48	6
STR	53	96	0
SI_	53	96	0	96	48	5
STR	53	96	3
SI_	53	96	3	96	48	0
STR	54	0	3
SI_	54	0	3	96	48	7
TAP	54	0	7
STR	54	192	0
SI_	54	192	0	96	48	3
TAP	54	192	2
STR	54	288	0
SI_	54	288	0	96	48	5
TAP	54	288	6
STR	55	0	0
SI_	55	0	0	96	48	4
TAP	55	0	2
TAP	55	96	0
TAP	55	96	6
STR	55	192	3
SCL	55	192	3	96	48	0
STR	55	192	6
SCL	55	192	6	96	48	3
STR	55	288	3
SI_	55	288	3	96	48	7
TAP	55	288	6
STR	56	96	0
SCR	56	96	0	96	48	3
STR	56	96	6
SCL	56	96	6	96	48	3
STR	57	0	4
SCL	57	0	4	96	48	1
STR	57	0	7
SCL	57	0	7	96	48	4
STR	57	96	4
SI_	57	96	4	96	48	7
STR	57	96	7
SI_	57	96	7	96	48	2
TAP	58	0	0
STR	58	0	4
SI_	58	0	4	96	48	0
TAP	58	192	5
STR	58	192	7
SI_	58	192	7	96	48	4
TAP	58	288	1
STR	58	288	7
SI_	58	288	7	96	48	2
TAP	59	0	5
STR	59	0	7
SI_	59	0	7	96	48	3
TAP	59	96	1
TAP	59	96	7
STR	59	192	6
SI_	59	192	6	96	48	3
TAP	59	192	7
STR	60	0	4
SI_	60	0	4	96	48	1
TAP	60	0	5
STR	60	192	2
SI_	60	192	2	96	48	7
TAP	60	192	3
STR	61	0	0
SI_	61	0	0	96	48	5
TAP	61	0	1
STR	61	192	6
SI_	61	192	6	96	48	3
TAP	61	192	7
STR	62	0	4
SI_	62	0	4	96	48	1
TAP	62	0	5
STR	62	192	2
SI_	62	192	2	96	48	7
TAP	62	192	3
STR	63	0	0
SI_	63	0	0	96	48	5
TAP	63	0	1
BRK	63	192	6
BRK	63	192	7

T_REC_TAP	263
T_REC_BRK	3
T_REC_XTP	0
T_REC_HLD	12
T_REC_XHO	0
T_REC_STR	94
T_REC_BST	0
T_REC_XST	0
T_REC_TTP	0
T_REC_THO	0
T_REC_SLD	94
T_REC_ALL	466
T_NUM_TAP	357
T_NUM_BRK	3
T_NUM_HLD	12
T_NUM_SLD	94
T_NUM_ALL	466
T_JUDGE_TAP	360
T_JUDGE_HLD	24
T_JUDGE_SLD	94
T_JUDGE_ALL	478
TTM_EACHPAIRS	186
TTM_SCR_TAP	178500
TTM_SCR_BRK	7800
TTM_SCR_HLD	12000
TTM_SCR_SLD	141000
TTM_SCR_ALL	339300
TTM_SCR_S	328850
TTM_SCR_SS	339000
TTM_RAT_ACV	10008

