VERSION	0.00.00	1.03.00
FES_MODE	0
BPM_DEF	120.000	120.000	120.000	120.000
MET_DEF	4	4
RESOLUTION	384
CLK_DEF	384
COMPATIBLE_CODE	MA2

BPM	0	0	120.000
MET	0	0	4	4

TAP	2	0	0
TAP	2	48	0
TAP	2	192	2
TAP	2	240	2
TAP	3	0	4
TAP	3	48	4
TAP	3	192	6
TAP	3	240	6
TAP	4	0	7
TAP	4	48	7
TAP	4	192	5
TAP	4	240	5
TAP	5	0	3
TAP	5	48	3
TAP	5	192	1
TAP	5	240	1
TAP	6	0	0
TAP	6	48	0
TAP	6	48	1
TAP	6	192	2
TAP	6	240	2
TAP	6	240	3
TAP	7	0	4
TAP	7	48	4
TAP	7	48	5
TAP	7	192	6
TAP	7	240	6
TAP	7	240	7
TAP	8	0	7
TAP	8	48	6
TAP	8	48	7
TAP	8	192	5
TAP	8	240	4
TAP	8	240	5
HLD	9	0	2	288
TAP	9	96	0
TAP	9	192	6
TAP	9	288	4
HLD	10	0	6	96
TAP	10	96	4
HLD	10	192	2	96
TAP	10	288	0
HLD	11	0	5	96
TAP	11	96	3
HLD	11	192	1	96
TAP	11	240	7
TAP	11	288	7
HLD	12	0	4	96
TAP	12	96	6
HLD	12	192	0	96
TAP	12	288	2
HLD	13	0	7	96
TAP	13	96	5
HLD	13	192	3	96
TAP	13	240	1
TAP	13	288	1
TAP	14	0	6
TAP	14	96	7
TAP	14	192	0
TAP	14	288	1
HLD	15	0	2	288
TAP	15	96	3
TAP	15	192	3
TAP	15	288	3
TAP	16	0	1
TAP	16	96	0
TAP	16	192	7
TAP	16	288	6
HLD	17	0	5	288
TAP	17	96	4
TAP	17	192	4
TAP	17	288	4
HLD	18	0	6	96
TAP	18	96	7
TAP	18	192	0
TAP	18	288	1
HLD	19	0	2	288
TAP	19	96	4
TAP	19	192	4
TAP	19	288	4
HLD	20	0	1	96
TAP	20	96	0
TAP	20	192	7
TAP	20	288	6
HLD	21	0	5	288
TAP	21	96	3
TAP	21	192	3
BRK	21	288	3
HLD	22	0	1	192
HLD	22	192	7	192
HLD	23	0	4	192
HLD	23	192	6	192
HLD	24	0	2	192
HLD	24	192	5	480
TAP	25	0	7
STR	25	96	7
SI_	25	96	7	96	96	4
STR	26	0	7
SCR	26	0	7	96	96	2
TAP	26	96	6
TAP	26	192	5
TAP	26	288	4
STR	27	0	3
SCR	27	0	3	96	96	6
TAP	27	96	2
TAP	27	192	1
TAP	27	288	0
STR	28	0	1
SCL	28	0	1	96	96	6
TAP	28	96	2
TAP	28	192	3
TAP	28	288	4
HLD	29	0	5	288
TAP	29	96	4
TAP	29	192	4
TAP	29	288	4
STR	30	0	0
SCL	30	0	0	96	96	5
TAP	30	96	1
TAP	30	192	2
TAP	30	288	3
STR	31	0	4
SCL	31	0	4	96	96	1
TAP	31	96	5
TAP	31	192	6
TAP	31	288	7
STR	32	0	6
SCR	32	0	6	96	96	1
TAP	32	96	5
TAP	32	192	4
TAP	32	288	3
HLD	33	0	2	288
TAP	33	96	0
TAP	33	192	1
TAP	33	288	3
HLD	34	0	4	384
TAP	34	192	3
HLD	35	0	3	384
TAP	35	192	4
HLD	36	0	5	384
TAP	36	192	4
HLD	37	0	2	192
TAP	37	192	3
TAP	38	0	0
TAP	38	96	1
TAP	38	192	2
TAP	38	288	3
TAP	39	0	4
TAP	39	96	5
TAP	39	192	6
TAP	39	288	7
TAP	40	0	0
TAP	40	192	7
HLD	40	288	7	96
HLD	41	0	6	96
HLD	41	96	5	96
TAP	41	192	4
BRK	43	96	4
STR	43	192	7
SCR	43	192	7	96	96	2
TAP	43	288	6
TAP	44	0	5
TAP	44	96	4
STR	44	192	3
SCR	44	192	3	96	96	6
TAP	44	288	2
TAP	45	0	1
TAP	45	96	0
STR	45	192	7
SCR	45	192	7	96	96	2
TAP	45	288	6
STR	46	0	7
SCL	46	0	7	96	96	4
TAP	46	96	0
STR	46	192	1
SCR	46	192	1	96	96	4
TAP	46	288	0
HLD	47	0	7	96
TAP	47	96	6
STR	47	192	0
SCL	47	192	0	96	96	5
TAP	47	288	1
TAP	48	0	2
TAP	48	96	3
STR	48	192	4
SCL	48	192	4	96	96	1
TAP	48	288	5
TAP	49	0	6
TAP	49	96	7
STR	49	192	0
SCL	49	192	0	96	96	5
TAP	49	288	1
STR	50	0	0
SCR	50	0	0	96	96	3
TAP	50	96	7
STR	50	192	6
SCL	50	192	6	96	96	3
TAP	50	288	7
HLD	51	0	0	96
TAP	51	96	1
TAP	51	192	7
TAP	51	240	6
TAP	51	288	5
TAP	51	336	4
TAP	52	0	3
TAP	52	48	2
STR	52	96	1
SCR	52	96	1	96	96	4
TAP	52	336	6
TAP	53	0	7
TAP	53	48	0
TAP	53	96	1
TAP	53	144	2
TAP	53	192	3
TAP	53	336	1
TAP	54	0	0
TAP	54	48	7
TAP	54	96	6
TAP	54	144	5
HLD	54	192	4	96
HLD	54	288	3	96
HLD	55	0	7	96
TAP	55	96	0
TAP	55	192	0
TAP	55	240	1
TAP	55	288	2
TAP	55	336	3
TAP	56	0	4
TAP	56	48	5
STR	56	96	6
SCL	56	96	6	96	96	3
TAP	56	336	1
TAP	57	0	0
TAP	57	48	7
TAP	57	96	6
TAP	57	144	5
TAP	57	192	4
TAP	57	336	6
TAP	58	0	7
TAP	58	48	0
TAP	58	96	1
TAP	58	144	2
HLD	58	192	3	96
HLD	58	288	4	96
HLD	59	0	0	96
TAP	59	96	7
STR	59	192	4
SCL	59	192	4	96	96	1
TAP	59	288	5
TAP	60	0	6
TAP	60	96	7
STR	60	192	0
SCL	60	192	0	96	96	5
TAP	60	288	1
TAP	61	0	2
TAP	61	96	3
STR	61	192	3
SCR	61	192	3	96	96	6
TAP	61	288	2
TAP	62	0	1
TAP	62	96	0
STR	62	192	7
SCR	62	192	7	96	96	2
TAP	62	288	6
TAP	63	0	5
TAP	63	96	4
BRK	63	192	3

T_REC_TAP	180
T_REC_BRK	3
T_REC_XTP	0
T_REC_HLD	38
T_REC_XHO	0
T_REC_STR	23
T_REC_BST	0
T_REC_XST	0
T_REC_TTP	0
T_REC_THO	0
T_REC_SLD	23
T_REC_ALL	267
T_NUM_TAP	203
T_NUM_BRK	3
T_NUM_HLD	38
T_NUM_SLD	23
T_NUM_ALL	267
T_JUDGE_TAP	206
T_JUDGE_HLD	142
T_JUDGE_SLD	23
T_JUDGE_ALL	371
TTM_EACHPAIRS	6
TTM_SCR_TAP	101500
TTM_SCR_BRK	7800
TTM_SCR_HLD	38000
TTM_SCR_SLD	34500
TTM_SCR_ALL	181800
TTM_SCR_S	176100
TTM_SCR_SS	181500
TTM_RAT_ACV	10016

